<svg xmlns="http://www.w3.org/2000/svg"><defs><font horiz-adv-x="1536"><font-face ascent="1536" bbox="-0.653061 -410 2304.15 1538" descent="-256" panose-1="2 0 5 3 0 0 0 0 0 0" underline-position="-179.2" underline-thickness="89.6" unicode-range="U+0020-F35F" units-per-em="1792"/><missing-glyph/><glyph glyph-name="space" horiz-adv-x="200" unicode="&#x20;"/><glyph d="M1387-11l-6-6c-75-75-162-134-259-175-101-42-207-64-317-64s-217 22-317 64c-97 41-185 100-259 175-75 74-134 161-175 258-25 61-45 124-54 189-4 28 35 34 48 36 31 5 52 3 56-20 1-1 1-2 1-4 4-20 14-80 46-159 33-82 84-158 152-226 65-65 141-116 226-152 87-37 180-56 276-56 95 0 188 19 276 56 84 36 160 87 225 152l6 6c7 7 15 9 25 6 9-2 20-10 33-22 32-33 25-49 17-58zM915 604l-66-66 63-63c7-7 20-22-7-49-11-11-22-17-32-17-7 0-13 3-19 10l-62 61-66-66c-2-2-7-5-15-5-9 0-20 5-31 16l-2 2c-7 6-18 17-18 29 0 6 3 11 8 17l66 65-66 66c-11 11-6 25 14 45 12 12 22 18 31 18 5 0 9-2 13-5l65-66 65 65c11 11 29 6 48-13 12-12 25-29 11-44zM1386 547c0-79-16-156-46-228-30-70-72-132-126-186s-117-96-187-126c-72-31-149-46-228-46s-156 15-228 46c-70 30-133 72-187 126s-96 116-125 186c-6 13-15 38-15 40h-1c-9 28 31 40 43 44 29 9 51 13 60-12 24-64 61-126 97-167h1v341c2 84 37 169 102 232 67 66 157 103 253 103 196 0 355-158 355-352 0-196-160-355-355-355-39 0-68 3-112 16-5 2-28 12-13 61 4 13 16 51 44 43 2 0 51-12 77-12 139 0 248 108 248 246 0 65-26 126-72 171-46 46-108 71-175 71-69 0-132-28-178-80-40-45-64-105-64-160v-413c72-44 155-67 242-67 128 0 252 51 341 140 90 90 140 211 140 338 0 128-50 248-141 339-90 90-210 140-339 140s-250-50-340-140c-1-1-58-60-77-87l-2-2c-12-17-23-33-73-22-25 6-52 21-52 43v680c0 18 14 38 38 38h877c30 0 30-42 30-55 0-14 0-55-30-55h-811v-483h1c56 59 153 121 210 145 71 30 151 46 231 46 79 0 156-15 228-46 70-30 133-72 187-126s96-116 126-186c30-73 46-149 46-229zM1355 1128c19-17 6-35-13-57-12-12-25-26-39-26-6 0-11 2-16 7-72 62-137 104-207 133-87 38-180 56-276 56-85 0-178-17-262-49-26-10-40 24-45 37-6 16-9 29-8 38 2 10 7 17 16 20 82 36 194 57 299 57 109 0 216-22 316-64 92-39 167-87 235-152z" glyph-name="500px" horiz-adv-x="1394" unicode="&#xf26e;"/><glyph d="M924 1280v-1280l-185 107v853l-739-427v214zM1109 1280l923-533v-214l-923-533v213l739 427-739 427v213zM1109 853l369-213-369-213v426zM554 640v-427l-369 214z" glyph-name="activitypub" horiz-adv-x="2032" unicode="&#xf2f2;"/><glyph d="M1201 298c0 177-43 374-221 374-55-32-130-87-212-87s-157 55-212 87c-178 0-221-197-221-374 0-99 65-170 145-170h576c80 0 145 71 145 170zM1028 892c0 144-117 260-260 260s-260-116-260-260c0-143 117-259 260-259s260 116 260 259zM1664 352v-192c0-18-14-32-32-32h-96v-224c0-88-72-160-160-160h-1216c-88 0-160 72-160 160v1472c0 88 72 160 160 160h1216c88 0 160-72 160-160v-224h96c18 0 32-14 32-32v-192c0-18-14-32-32-32h-96v-128h96c18 0 32-14 32-32v-192c0-18-14-32-32-32h-96v-128h96c18 0 32-14 32-32z" glyph-name="address-book" horiz-adv-x="1664" unicode="&#xf2b9;"/><glyph d="M1028 892c0-143-117-259-260-259s-260 116-260 259c0 144 117 260 260 260s260-116 260-260zM980 672c191 0 221-227 221-374 0-84-53-170-145-170h-576c-92 0-145 86-145 170 0 141 30 374 216 374h5c66-39 133-87 212-87s146 48 212 87zM1664 928c0-17-15-32-32-32h-96v-128h96c17 0 32-15 32-32v-192c0-17-15-32-32-32h-96v-128h96c17 0 32-15 32-32v-192c0-17-15-32-32-32h-96v-224c0-88-72-160-160-160h-1216c-88 0-160 72-160 160v1472c0 88 72 160 160 160h1216c88 0 160-72 160-160v-224h96c17 0 32-15 32-32v-192zM1408-96v1472c0 17-15 32-32 32h-1216c-17 0-32-15-32-32v-1472c0-17 15-32 32-32h1216c17 0 32 15 32 32z" glyph-name="address-book-o" horiz-adv-x="1664" unicode="&#xf2ba;"/><glyph d="M1024 405c0 155-38 327-196 327-49-28-115-76-188-76s-139 48-188 76c-158 0-196-172-196-327 0-87 57-149 128-149h512c71 0 128 62 128 149zM867 925c0 125-102 227-227 227s-227-102-227-227c0-126 102-227 227-227s227 101 227 227zM1792 416v64c0 18-14 32-32 32h-576c-18 0-32-14-32-32v-64c0-18 14-32 32-32h576c18 0 32 14 32 32zM1792 676v56c0 20-16 36-36 36h-568c-20 0-36-16-36-36v-56c0-20 16-36 36-36h568c20 0 36 16 36 36zM1792 928v64c0 18-14 32-32 32h-576c-18 0-32-14-32-32v-64c0-18 14-32 32-32h576c18 0 32 14 32 32zM2048 1248v-1216c0-88-72-160-160-160h-352v96c0 18-14 32-32 32h-64c-18 0-32-14-32-32v-96h-768v96c0 18-14 32-32 32h-64c-18 0-32-14-32-32v-96h-352c-88 0-160 72-160 160v1216c0 88 72 160 160 160h1728c88 0 160-72 160-160z" glyph-name="address-card" horiz-adv-x="2048" unicode="&#xf2bb;"/><glyph d="M1024 405c0-87-57-149-128-149h-512c-71 0-128 62-128 149 0 155 38 327 196 327 49-28 115-76 188-76s139 48 188 76c158 0 196-172 196-327zM867 925c0-126-102-227-227-227s-227 101-227 227c0 125 102 227 227 227s227-102 227-227zM1792 480v-64c0-18-14-32-32-32h-576c-18 0-32 14-32 32v64c0 18 14 32 32 32h576c18 0 32-14 32-32zM1792 732v-56c0-20-16-36-36-36h-568c-20 0-36 16-36 36v56c0 20 16 36 36 36h568c20 0 36-16 36-36zM1792 992v-64c0-18-14-32-32-32h-576c-18 0-32 14-32 32v64c0 18 14 32 32 32h576c18 0 32-14 32-32zM1920 32v1216c0 17-15 32-32 32h-1728c-17 0-32-15-32-32v-1216c0-17 15-32 32-32h352v96c0 18 14 32 32 32h64c18 0 32-14 32-32v-96h768v96c0 18 14 32 32 32h64c18 0 32-14 32-32v-96h352c17 0 32 15 32 32zM2048 1248v-1216c0-88-72-160-160-160h-1728c-88 0-160 72-160 160v1216c0 88 72 160 160 160h1728c88 0 160-72 160-160z" glyph-name="address-card-o" horiz-adv-x="2048" unicode="&#xf2bc;"/><glyph d="M768 96v1088c-300 0-544-244-544-544s244-544 544-544zM1536 640c0-424-344-768-768-768s-768 344-768 768 344 768 768 768 768-344 768-768z" glyph-name="adjust" unicode="&#xf042;"/><glyph d="M768 914l201-306h-402zM1133 384h94l-459 691-459-691h94l104 160h522zM1536 640c0-424-344-768-768-768s-768 344-768 768 344 768 768 768 768-344 768-768z" glyph-name="adn" unicode="&#xf170;"/><glyph d="M1792 192v-128c0-35-29-64-64-64h-1664c-35 0-64 29-64 64v128c0 35 29 64 64 64h1664c35 0 64-29 64-64zM1408 576v-128c0-35-29-64-64-64h-896c-35 0-64 29-64 64v128c0 35 29 64 64 64h896c35 0 64-29 64-64zM1664 960v-128c0-35-29-64-64-64h-1408c-35 0-64 29-64 64v128c0 35 29 64 64 64h1408c35 0 64-29 64-64zM1280 1344v-128c0-35-29-64-64-64h-640c-35 0-64 29-64 64v128c0 35 29 64 64 64h640c35 0 64-29 64-64z" glyph-name="align-center" horiz-adv-x="1792" unicode="&#xf037;"/><glyph d="M1792 192v-128c0-35-29-64-64-64h-1664c-35 0-64 29-64 64v128c0 35 29 64 64 64h1664c35 0 64-29 64-64zM1792 576v-128c0-35-29-64-64-64h-1664c-35 0-64 29-64 64v128c0 35 29 64 64 64h1664c35 0 64-29 64-64zM1792 960v-128c0-35-29-64-64-64h-1664c-35 0-64 29-64 64v128c0 35 29 64 64 64h1664c35 0 64-29 64-64zM1792 1344v-128c0-35-29-64-64-64h-1664c-35 0-64 29-64 64v128c0 35 29 64 64 64h1664c35 0 64-29 64-64z" glyph-name="align-justify" horiz-adv-x="1792" unicode="&#xf039;"/><glyph d="M1792 192v-128c0-35-29-64-64-64h-1664c-35 0-64 29-64 64v128c0 35 29 64 64 64h1664c35 0 64-29 64-64zM1408 576v-128c0-35-29-64-64-64h-1280c-35 0-64 29-64 64v128c0 35 29 64 64 64h1280c35 0 64-29 64-64zM1664 960v-128c0-35-29-64-64-64h-1536c-35 0-64 29-64 64v128c0 35 29 64 64 64h1536c35 0 64-29 64-64zM1280 1344v-128c0-35-29-64-64-64h-1152c-35 0-64 29-64 64v128c0 35 29 64 64 64h1152c35 0 64-29 64-64z" glyph-name="align-left" horiz-adv-x="1792" unicode="&#xf036;"/><glyph d="M1792 192v-128c0-35-29-64-64-64h-1664c-35 0-64 29-64 64v128c0 35 29 64 64 64h1664c35 0 64-29 64-64zM1792 576v-128c0-35-29-64-64-64h-1280c-35 0-64 29-64 64v128c0 35 29 64 64 64h1280c35 0 64-29 64-64zM1792 960v-128c0-35-29-64-64-64h-1536c-35 0-64 29-64 64v128c0 35 29 64 64 64h1536c35 0 64-29 64-64zM1792 1344v-128c0-35-29-64-64-64h-1152c-35 0-64 29-64 64v128c0 35 29 64 64 64h1152c35 0 64-29 64-64z" glyph-name="align-right" horiz-adv-x="1792" unicode="&#xf038;"/><glyph d="M1523 60c30 15 53-8 22-48s-280-268-698-268-738 286-836 404c-27 31 4 45 22 33 293-178 751-471 1490-121zM1730 175c15-20 0-108-26-172-26-63-64-107-85-124-22-18-38-11-26 15s77 186 51 220c-26 33-148 17-192 13-43-4-52-8-56 1-9 23 87 62 150 70 63 7 164 3 184-23zM1336 618c0-110 129-211 129-211l-227-224c-89 84-156 154-156 154-10 10-18 22-25 33-181-283-734-265-734 173 0 408 483 463 678 470v127c0 27 10 150-142 150 0 0-152 0-217-198l-294 27c0 197 187 417 539 417 351 0 449-228 449-329v-589zM664 597c0-203 337-251 337 69v162c-135-4-337-42-337-231z" glyph-name="amazon" horiz-adv-x="1736" unicode="&#xf270;"/><glyph d="M576 128c0 71-57 128-128 128s-128-57-128-128 57-128 128-128 128 57 128 128zM192 640h384v256h-158c-6-1-17-5-22-9l-195-195c-3-5-8-16-9-22v-30zM1472 128c0 71-57 128-128 128s-128-57-128-128 57-128 128-128 128 57 128 128zM1600 800v192c0 18-14 32-32 32h-224v224c0 18-14 32-32 32h-192c-18 0-32-14-32-32v-224h-224c-18 0-32-14-32-32v-192c0-18 14-32 32-32h224v-224c0-18 14-32 32-32h192c18 0 32 14 32 32v224h224c18 0 32 14 32 32zM1856 1344v-1152c0-35-29-64-64-64h-192c0-141-114-256-256-256-141 0-256 115-256 256h-384c0-141-114-256-256-256s-256 115-256 256h-128c-35 0-64 29-64 64s29 64 64 64v416c0 35 20 84 45 109l198 198c25 25 74 45 109 45h160v320c0 35 29 64 64 64h1152c35 0 64-29 64-64z" glyph-name="ambulance" horiz-adv-x="1856" unicode="&#xf0f9;"/><glyph d="M1032 576c-35 1-68 21-84 55-22 45-66 73-116 73-71 0-128-57-128-128 0-34 12-67 36-89l10-8c22-20 51-31 82-31 50 0 94 28 116 73 16 34 49 54 84 55zM1600 704c0 34-12 67-36 89l-10 8c-22 20-51 31-82 31-50 0-94-28-116-73-16-34-49-54-84-55 35-1 68-21 84-55 22-45 66-73 116-73 71 0 128 57 128 128zM1174 925c-23-47-81-67-128-44-42 21-87 31-134 31-35 0-68-6-99-17 6 0 13 1 19 1 123 0 236-72 289-183 23-48 2-105-46-128-12-6-25-9-39-9 14 0 27-3 39-9 48-23 69-80 46-128-53-111-166-183-289-183h-6c-15 2-29 3-44 4l-290 27-239-120c-10-5-19-7-29-7-23 0-46 13-57 35l-160 320c-15 31-4 68 25 85l209 119 148 267c23 206 125 395 287 528 41 34 102 28 135-13 34-41 28-101-13-135-45-38-85-81-117-128 78 53 168 89 267 101 53 7 101-30 107-83 7-53-30-101-83-107-58-7-112-27-159-55 32 7 65 10 99 10 76 0 150-17 218-50 48-24 68-81 44-129zM2137 1085l160-320c15-31 4-68-25-85l-209-119-148-267c-23-206-125-395-287-528-18-15-40-22-61-22-28 0-55 12-74 35-34 41-28 101 13 135 45 38 85 81 117 128-78-53-168-89-267-101-4-1-8-1-12-1-48 0-89 36-95 84-7 53 30 101 83 107 58 7 112 27 159 55-32-7-65-10-99-10-76 0-150 17-218 50-48 24-68 81-44 129 23 47 81 67 128 44 42-21 87-31 134-31 35 0 68 6 99 17-6 0-13-1-19-1-123 0-236 72-289 183-23 48-2 105 46 128 12 6 25 9 39 9-14 0-27 3-39 9-48 23-69 80-46 128 53 111 166 183 289 183h7c14-2 28-3 42-4l291-27 239 120c10 5 19 7 29 7 23 0 46-13 57-35z" glyph-name="american-sign-language-interpreting" horiz-adv-x="2303" unicode="&#xf2a3;"/><glyph d="M960 1280c0 35-29 64-64 64s-64-29-64-64 29-64 64-64 64 29 64 64zM1792 352v-352c0-13-8-25-20-30-4-1-8-2-12-2-8 0-16 3-23 9l-93 93c-157-189-439-310-748-310s-591 121-748 310l-93-93c-6-6-15-9-23-9-4 0-8 1-12 2-12 5-20 17-20 30v352c0 18 14 32 32 32h352c13 0 25-8 30-20s2-25-7-35l-100-100c90-121 263-209 461-236v647h-192c-35 0-64 29-64 64v128c0 35 29 64 64 64h192v163c-76 44-128 126-128 221 0 141 115 256 256 256s256-115 256-256c0-95-52-177-128-221v-163h192c35 0 64-29 64-64v-128c0-35-29-64-64-64h-192v-647c198 27 371 115 461 236l-100 100c-9 10-12 23-7 35s17 20 30 20h352c18 0 32-14 32-32z" glyph-name="anchor" horiz-adv-x="1792" unicode="&#xf13d;"/><glyph d="M493 1053c22 0 39 18 39 39s-17 39-39 39c-21 0-38-18-38-39s17-39 38-39zM915 1053c21 0 38 18 38 39s-17 39-38 39c-22 0-39-18-39-39s17-39 39-39zM103 869c56 0 102-46 102-102v-430c0-57-45-103-102-103s-103 46-103 103v430c0 56 46 102 103 102zM1163 850v-666c0-61-49-110-109-110h-75v-227c0-57-46-103-103-103s-103 46-103 103v227h-138v-227c0-57-46-103-103-103-56 0-102 46-102 103l-1 227h-74c-61 0-110 49-110 110v666h918zM931 1255c140-72 235-210 235-369h-925c0 159 95 297 236 369l-71 131c-4 7-2 16 5 20 7 3 16 1 20-6l72-132c61 27 129 42 201 42s140-15 201-42l72 132c4 7 13 9 20 6 7-4 9-13 5-20zM1408 767v-430c0-57-46-103-103-103-56 0-102 46-102 103v430c0 57 46 102 102 102 57 0 103-45 103-102z" glyph-name="android" horiz-adv-x="1408" unicode="&#xf17b;"/><glyph d="M942 1158l-114-328 117-21c30 82 165 451 165 518 0 25-8 56-38 56-56 0-116-182-130-225zM643 471c11-29 23-58 33-88 22 25 45 48 71 67-35 7-70 10-104 21zM351 1367c0-102 121-420 159-521 14 8 32 10 49 10 24 0 51-3 75-5l-121 351c-13 38-71 220-123 220-27 0-39-32-39-55zM272 608c0-73 196-342 269-342 20 0 37 22 37 40 0 23-23 80-32 102-26 67-121 274-203 274-27 0-71-47-71-74zM114 273c0-36 12-71 25-104 79-195 257-309 465-309 152 0 280 58 382 170 108 120 152 268 152 427 0 56 1 145-43 185-84 74-369 102-482 102-14 0-38-1-49-11-12-5-12-24-12-35 0-153 323-139 420-139 19 0 28-5 40-19 13-16 17-35 19-55-26-26-62-41-96-54-33-12-65-25-93-46-77-56-153-152-153-251 0-62 37-115 37-176 0-1-7-23-7-26-114 8-142 121-146 216-12-3-28-2-41-2 2-7 2-14 2-21 0-73-65-126-135-126-108 0-251 127-251 237 0 30 13 47 33 67 20-25 41-50 60-76 29-39 79-104 133-104 14 0 41 12 41 29 0 45-164 256-204 256-63 0-97-83-97-135zM0 264c0 130 50 216 179 251-11 29-28 73-28 104 0 82 101 184 183 184 24 0 48-7 70-15-42 119-163 454-163 567 0 101 51 181 160 181 140 0 299-504 333-604 44 110 182 571 338 571 98 0 153-78 153-171 0-106-118-436-159-550 168-41 192-177 192-328 0-400-255-710-668-710-76 0-151 15-223 42-190 72-367 267-367 478z" glyph-name="angellist" horiz-adv-x="1258" unicode="&#xf209;"/><glyph d="M998 672c0-8-4-17-10-23l-466-466c-6-6-15-10-23-10s-17 4-23 10l-466 466c-6 6-10 15-10 23s4 17 10 23l50 50c6 6 14 10 23 10 8 0 17-4 23-10l393-393 393 393c6 6 15 10 23 10s17-4 23-10l50-50c6-6 10-15 10-23zM998 1056c0-8-4-17-10-23l-466-466c-6-6-15-10-23-10s-17 4-23 10l-466 466c-6 6-10 15-10 23s4 17 10 23l50 50c6 6 14 10 23 10 8 0 17-4 23-10l393-393 393 393c6 6 15 10 23 10s17-4 23-10l50-50c6-6 10-15 10-23z" glyph-name="angle-double-down" horiz-adv-x="998" unicode="&#xf103;"/><glyph d="M582 160c0-8-4-17-10-23l-50-50c-6-6-15-10-23-10s-17 4-23 10l-466 466c-6 6-10 15-10 23s4 17 10 23l466 466c6 6 15 10 23 10s17-4 23-10l50-50c6-6 10-15 10-23s-4-17-10-23l-393-393 393-393c6-6 10-15 10-23zM966 160c0-8-4-17-10-23l-50-50c-6-6-15-10-23-10s-17 4-23 10l-466 466c-6 6-10 15-10 23s4 17 10 23l466 466c6 6 15 10 23 10s17-4 23-10l50-50c6-6 10-15 10-23s-4-17-10-23l-393-393 393-393c6-6 10-15 10-23z" glyph-name="angle-double-left" horiz-adv-x="966" unicode="&#xf100;"/><glyph d="M582 576c0-8-4-17-10-23l-466-466c-6-6-15-10-23-10s-17 4-23 10l-50 50c-6 6-10 15-10 23s4 17 10 23l393 393-393 393c-6 6-10 15-10 23s4 17 10 23l50 50c6 6 15 10 23 10s17-4 23-10l466-466c6-6 10-15 10-23zM966 576c0-8-4-17-10-23l-466-466c-6-6-15-10-23-10s-17 4-23 10l-50 50c-6 6-10 15-10 23s4 17 10 23l393 393-393 393c-6 6-10 15-10 23s4 17 10 23l50 50c6 6 15 10 23 10s17-4 23-10l466-466c6-6 10-15 10-23z" glyph-name="angle-double-right" horiz-adv-x="966" unicode="&#xf101;"/><glyph d="M998 224c0-8-4-17-10-23l-50-50c-6-6-14-10-23-10-8 0-17 4-23 10l-393 393-393-393c-6-6-15-10-23-10s-17 4-23 10l-50 50c-6 6-10 15-10 23s4 17 10 23l466 466c6 6 15 10 23 10s17-4 23-10l466-466c6-6 10-15 10-23zM998 608c0-8-4-17-10-23l-50-50c-6-6-14-10-23-10-8 0-17 4-23 10l-393 393-393-393c-6-6-15-10-23-10s-17 4-23 10l-50 50c-6 6-10 15-10 23s4 17 10 23l466 466c6 6 15 10 23 10s17-4 23-10l466-466c6-6 10-15 10-23z" glyph-name="angle-double-up" horiz-adv-x="998" unicode="&#xf102;"/><glyph d="M998 800c0-8-4-17-10-23l-466-466c-6-6-15-10-23-10s-17 4-23 10l-466 466c-6 6-10 15-10 23s4 17 10 23l50 50c6 6 14 10 23 10 8 0 17-4 23-10l393-393 393 393c6 6 15 10 23 10s17-4 23-10l50-50c6-6 10-15 10-23z" glyph-name="angle-down" horiz-adv-x="998" unicode="&#xf107;"/><glyph d="M582 992c0-8-4-17-10-23l-393-393 393-393c6-6 10-15 10-23s-4-17-10-23l-50-50c-6-6-15-10-23-10s-17 4-23 10l-466 466c-6 6-10 15-10 23s4 17 10 23l466 466c6 6 15 10 23 10s17-4 23-10l50-50c6-6 10-14 10-23z" glyph-name="angle-left" horiz-adv-x="582" unicode="&#xf104;"/><glyph d="M582 576c0-8-4-17-10-23l-466-466c-6-6-15-10-23-10s-17 4-23 10l-50 50c-6 6-10 14-10 23 0 8 4 17 10 23l393 393-393 393c-6 6-10 15-10 23s4 17 10 23l50 50c6 6 15 10 23 10s17-4 23-10l466-466c6-6 10-15 10-23z" glyph-name="angle-right" horiz-adv-x="582" unicode="&#xf105;"/><glyph d="M998 352c0-8-4-17-10-23l-50-50c-6-6-14-10-23-10-8 0-17 4-23 10l-393 393-393-393c-6-6-15-10-23-10s-17 4-23 10l-50 50c-6 6-10 15-10 23s4 17 10 23l466 466c6 6 15 10 23 10s17-4 23-10l466-466c6-6 10-15 10-23z" glyph-name="angle-up" horiz-adv-x="998" unicode="&#xf106;"/><glyph d="M1393 321c-25-79-65-163-123-250-86-131-172-196-257-196-34 0-80 11-140 32-59 22-110 32-151 32-40 0-88-11-142-33-55-23-99-34-132-34-103 0-202 87-301 259-97 172-147 339-147 503 0 153 38 277 113 374 75 96 169 144 284 144 49 0 107-10 177-30 69-20 115-30 138-30 29 0 77 11 143 34 66 22 124 34 173 34 80 0 151-22 213-65 35-24 70-58 104-100-52-44-90-83-114-118-43-62-65-131-65-207 0-82 23-157 69-223s99-108 158-126zM1017 1494c0-41-10-87-29-136-20-50-51-96-93-138-36-36-72-60-108-72-23-7-57-13-104-17 2 99 28 185 78 257s134 121 250 148c2-9 4-16 5-22 0-7 1-13 1-20z" glyph-name="apple" horiz-adv-x="1393" unicode="&#xf179;"/><glyph d="M1024 704c0 35-29 64-64 64h-256c-35 0-64-29-64-64s29-64 64-64h256c35 0 64 29 64 64zM1600 896v-960c0-35-29-64-64-64h-1408c-35 0-64 29-64 64v960c0 35 29 64 64 64h1408c35 0 64-29 64-64zM1664 1344v-256c0-35-29-64-64-64h-1536c-35 0-64 29-64 64v256c0 35 29 64 64 64h1536c35 0 64-29 64-64z" glyph-name="archive" horiz-adv-x="1664" unicode="&#xf187;"/><glyph d="M1459 1344l-27-53h-1385l-24 53 717 189zM1430 1237v-140h-1380v140h1380zM1257 442c-3 65-4 124-3 178 0 25 1 61 3 108s3 77 3 91c1 22 3 57 5 104s4 82 5 107c0 1 1 3 1 7v10c47 10 93 10 138 0 21-325 21-630 0-916-41-11-82-12-123-1-6 1-10 2-11 2s-3 2-3 3-1 4-1 9c-3 34-6 90-10 165zM80 369v0c-1 9-1 22-1 38 0 5-1 11-1 21s-1 17-1 22c0 26 0 45-1 57v219c2 38 3 68 3 88 2 32 3 56 3 71 1 7 1 15 1 26 0 3 1 9 1 17s1 14 1 18c0 7 0 10 1 12 0 12 0 22 1 28 0 11 1 20 2 27 0 11 0 19 1 24 0 4 2 6 7 7 29 10 61 13 96 8 11-2 22-5 32-9 2 0 3-2 3-6 2-42 4-74 6-97 1-20 2-50 3-90s2-69 2-88 1-47 1-85 1-66 2-84c-3-131-4-199-4-206-1-47-3-112-7-194-2-27-3-47-3-60 0-3-2-5-6-6-28-9-59-11-94-8-4 1-10 3-18 5s-12 4-14 5c-4 0-6 1-6 4 0 12 0 21-1 26 0 4-1 8-1 14s-1 10-1 13c0 9 0 15-1 20 0 6-1 13-1 24v25c-1 6-2 14-2 25s0 19-1 25c0 17-1 30-2 40v24zM464 255v0 25s-1 19-1 25c-1 10-1 23-1 40-1 5-2 13-2 24 0 16 0 29-1 38v43c-1 13-2 32-2 57v29s-1 21-1 27v102c0 27 0 47 1 61 0 18 1 48 3 88 0 17 1 40 3 71 0 11 0 20 1 26 0 15 1 27 2 35v12c0 4 1 9 1 15v13s1 7 2 13 1 10 1 14l2 24c0 4 1 6 5 7 30 10 62 13 96 8 11-2 22-5 32-9 4 0 6-2 6-6l4-97 4-178c2-78 3-135 3-169 0-24-1-59-1-104s-1-79-2-102c-1-47-3-112-7-194 0-13-1-33-3-60 0-3-2-5-7-6-26-10-57-12-92-8-4 0-7 1-11 2s-8 3-13 4-8 3-10 4c-2 0-3 1-3 4-1 7-1 15-1 26-1 7-2 16-2 27-2 4-3 10-3 20zM1046 961v0c1-26 3-63 4-114s2-89 2-114c2-67 3-113 3-140 0-22-1-53-1-95s-1-73-2-94c-1-45-3-111-7-199-1-8-2-20-2-36s0-28-1-36c0-3-2-5-7-6-27-9-58-11-93-8-5 1-12 2-20 5s-12 5-13 5c-3 0-5 1-5 5 0 12 0 31-2 56s-4 45-5 58c0 15-1 40-2 73s-2 59-3 77c0 13-1 33-2 60s-1 47-1 60v68c-1 46-1 69 0 70 1 55 3 136 7 242 2 48 4 94 8 139 0 4 2 6 6 7 29 10 61 13 95 8 12-2 23-5 33-9 3 0 4-2 4-6zM60-18v98h1390v-98h-1390zM0-128v73h1506v-73h-1506z" glyph-name="archive-org" horiz-adv-x="1506" unicode="&#xf2fc;"/><glyph d="M897 1538c164-386 203-504 682-1397-61 36-138 70-247 98 158-81 236-156 310-214 47-87 97-179 152-281-281 162-499 263-702 303 7 31 11 64 12 98 5 182-83 337-195 347s-207-131-212-313v-9c0-43 4-84 13-122-205-39-426-140-710-304 362 650 540 989 654 1226 60-50 139-99 256-147-109 76-175 143-230 201 89 190 137 318 217 514z" glyph-name="archlinux" horiz-adv-x="1794" unicode="&#xf323;"/><glyph d="M2048 0v-128h-2048v1536h128v-1408h1920zM1664 1024l256-896h-1664v576l448 576 576-576z" glyph-name="area-chart" horiz-adv-x="2048" unicode="&#xf1fe;"/><glyph d="M1284 639c0 17-6 33-18 45l-91 91c-12 12-28 18-45 18s-33-6-45-18l-189-189v502c0 35-29 64-64 64h-128c-35 0-64-29-64-64v-502l-189 189c-12 12-28 19-45 19s-33-7-45-19l-91-91c-12-12-18-28-18-45s6-33 18-45l362-362 91-91c12-12 28-18 45-18s33 6 45 18l91 91 362 362c12 12 18 28 18 45zM1536 640c0-424-344-768-768-768s-768 344-768 768 344 768 768 768 768-344 768-768z" glyph-name="arrow-circle-down" unicode="&#xf0ab;"/><glyph d="M1280 576v128c0 35-29 64-64 64h-502l189 189c12 12 19 28 19 45s-7 33-19 45l-91 91c-12 12-28 18-45 18s-33-6-45-18l-362-362-91-91c-12-12-18-28-18-45s6-33 18-45l91-91 362-362c12-12 28-18 45-18s33 6 45 18l91 91c12 12 18 28 18 45s-6 33-18 45l-189 189h502c35 0 64 29 64 64zM1536 640c0-424-344-768-768-768s-768 344-768 768 344 768 768 768 768-344 768-768z" glyph-name="arrow-circle-left" unicode="&#xf0a8;"/><glyph d="M1120 608c0-9-4-17-10-24l-319-319c-7-6-15-9-23-9s-16 3-23 9l-320 320c-9 10-12 23-7 35s17 20 30 20h192v352c0 18 14 32 32 32h192c18 0 32-14 32-32v-352h192c18 0 32-14 32-32zM768 1184c-300 0-544-244-544-544s244-544 544-544 544 244 544 544-244 544-544 544zM1536 640c0-424-344-768-768-768s-768 344-768 768 344 768 768 768 768-344 768-768z" glyph-name="arrow-circle-o-down" unicode="&#xf01a;"/><glyph d="M1152 736v-192c0-17-15-32-32-32h-352v-192c0-18-14-32-32-32-9 0-17 4-24 10l-319 319c-6 6-9 15-9 23s3 17 9 23l320 320c6 6 15 9 23 9 17 0 32-15 32-32v-192h352c17 0 32-15 32-32zM1312 640c0 300-244 544-544 544s-544-244-544-544 244-544 544-544 544 244 544 544zM1536 640c0-424-344-768-768-768s-768 344-768 768 344 768 768 768 768-344 768-768z" glyph-name="arrow-circle-o-left" unicode="&#xf190;"/><glyph d="M1152 640c0-8-3-17-9-23l-320-320c-6-6-15-9-23-9-17 0-32 15-32 32v192h-352c-17 0-32 15-32 32v192c0 17 15 32 32 32h352v192c0 18 14 32 32 32 9 0 17-4 24-10l319-319c6-6 9-15 9-23zM1312 640c0 300-244 544-544 544s-544-244-544-544 244-544 544-544 544 244 544 544zM1536 640c0-424-344-768-768-768s-768 344-768 768 344 768 768 768 768-344 768-768z" glyph-name="arrow-circle-o-right" unicode="&#xf18e;"/><glyph d="M1118 660c-5-12-17-20-30-20h-192v-352c0-18-14-32-32-32h-192c-18 0-32 14-32 32v352h-192c-18 0-32 14-32 32 0 9 4 17 10 24l319 319c7 6 15 9 23 9s16-3 23-9l320-320c9-10 12-23 7-35zM768 1184c-300 0-544-244-544-544s244-544 544-544 544 244 544 544-244 544-544 544zM1536 640c0-424-344-768-768-768s-768 344-768 768 344 768 768 768 768-344 768-768z" glyph-name="arrow-circle-o-up" unicode="&#xf01b;"/><glyph d="M1285 640c0 17-6 33-18 45l-91 91-362 362c-12 12-28 18-45 18s-33-6-45-18l-91-91c-12-12-18-28-18-45s6-33 18-45l189-189h-502c-35 0-64-29-64-64v-128c0-35 29-64 64-64h502l-189-189c-12-12-19-28-19-45s7-33 19-45l91-91c12-12 28-18 45-18s33 6 45 18l362 362 91 91c12 12 18 28 18 45zM1536 640c0-424-344-768-768-768s-768 344-768 768 344 768 768 768 768-344 768-768z" glyph-name="arrow-circle-right" unicode="&#xf0a9;"/><glyph d="M1284 641c0 17-6 33-18 45l-362 362-91 91c-12 12-28 18-45 18s-33-6-45-18l-91-91-362-362c-12-12-18-28-18-45s6-33 18-45l91-91c12-12 28-18 45-18s33 6 45 18l189 189v-502c0-35 29-64 64-64h128c35 0 64 29 64 64v502l189-189c12-12 28-19 45-19s33 7 45 19l91 91c12 12 18 28 18 45zM1536 640c0-424-344-768-768-768s-768 344-768 768 344 768 768 768 768-344 768-768z" glyph-name="arrow-circle-up" unicode="&#xf0aa;"/><glyph d="M1558 704c0-34-14-67-37-90l-651-652c-24-23-57-37-91-37s-67 14-90 37l-651 652c-24 23-38 56-38 90s14 67 38 91l74 75c24 23 57 37 91 37s67-14 90-37l294-294v704c0 70 58 128 128 128h128c70 0 128-58 128-128v-704l294 294c23 23 56 37 90 37s67-14 91-37l75-75c23-24 37-57 37-91z" glyph-name="arrow-down" horiz-adv-x="1558" unicode="&#xf063;"/><glyph d="M1472 640v-128c0-68-45-128-117-128h-704l293-294c24-23 38-56 38-90s-14-67-38-90l-75-76c-23-23-56-37-90-37s-67 14-91 37l-651 652c-23 23-37 56-37 90s14 67 37 91l651 650c24 24 57 38 91 38s66-14 90-38l75-74c24-24 38-57 38-91s-14-67-38-91l-293-293h704c72 0 117-60 117-128z" glyph-name="arrow-left" horiz-adv-x="1472" unicode="&#xf060;"/><glyph d="M1472 576c0-34-13-67-37-91l-651-651c-24-23-57-37-91-37s-66 14-90 37l-75 75c-24 24-38 57-38 91s14 67 38 91l293 293h-704c-72 0-117 60-117 128v128c0 68 45 128 117 128h704l-293 294c-24 23-38 56-38 90s14 67 38 90l75 75c24 24 56 38 90 38s67-14 91-38l651-651c24-23 37-56 37-90z" glyph-name="arrow-right" horiz-adv-x="1472" unicode="&#xf061;"/><glyph d="M1558 565c0-34-14-66-37-90l-75-75c-24-24-57-38-91-38s-67 14-90 38l-294 293v-704c0-72-60-117-128-117h-128c-68 0-128 45-128 117v704l-294-293c-23-24-56-38-90-38s-67 14-90 38l-75 75c-24 24-38 56-38 90s14 67 38 91l651 651c23 24 56 37 90 37s67-13 91-37l651-651c23-24 37-57 37-91z" glyph-name="arrow-up" horiz-adv-x="1558" unicode="&#xf062;"/><glyph d="M1792 640c0-17-7-33-19-45l-256-256c-12-12-28-19-45-19-35 0-64 29-64 64v128h-384v-384h128c35 0 64-29 64-64 0-17-7-33-19-45l-256-256c-12-12-28-19-45-19s-33 7-45 19l-256 256c-12 12-19 28-19 45 0 35 29 64 64 64h128v384h-384v-128c0-35-29-64-64-64-17 0-33 7-45 19l-256 256c-12 12-19 28-19 45s7 33 19 45l256 256c12 12 28 19 45 19 35 0 64-29 64-64v-128h384v384h-128c-35 0-64 29-64 64 0 17 7 33 19 45l256 256c12 12 28 19 45 19s33-7 45-19l256-256c12-12 19-28 19-45 0-35-29-64-64-64h-128v-384h384v128c0 35 29 64 64 64 17 0 33-7 45-19l256-256c12-12 19-28 19-45z" glyph-name="arrows" horiz-adv-x="1792" unicode="&#xf047;"/><glyph d="M1283 995l-355-355 355-355 144 144c18 19 46 24 70 14 23-10 39-33 39-59v-448c0-35-29-64-64-64h-448c-26 0-49 16-59 40-10 23-5 51 14 69l144 144-355 355-355-355 144-144c19-18 24-46 14-69-10-24-33-40-59-40h-448c-35 0-64 29-64 64v448c0 26 16 49 40 59 23 10 51 5 69-14l144-144 355 355-355 355-144-144c-12-12-28-19-45-19-8 0-17 2-24 5-24 10-40 33-40 59v448c0 35 29 64 64 64h448c26 0 49-16 59-40 10-23 5-51-14-69l-144-144 355-355 355 355-144 144c-19 18-24 46-14 69 10 24 33 40 59 40h448c35 0 64-29 64-64v-448c0-26-16-49-39-59-8-3-17-5-25-5-17 0-33 7-45 19z" glyph-name="arrows-alt" unicode="&#xf0b2;"/><glyph d="M1792 640c0-17-7-33-19-45l-256-256c-12-12-28-19-45-19-35 0-64 29-64 64v128h-1024v-128c0-35-29-64-64-64-17 0-33 7-45 19l-256 256c-12 12-19 28-19 45s7 33 19 45l256 256c12 12 28 19 45 19 35 0 64-29 64-64v-128h1024v128c0 35 29 64 64 64 17 0 33-7 45-19l256-256c12-12 19-28 19-45z" glyph-name="arrows-h" horiz-adv-x="1792" unicode="&#xf07e;"/><glyph d="M640 1216c0-35-29-64-64-64h-128v-1024h128c35 0 64-29 64-64 0-17-7-33-19-45l-256-256c-12-12-28-19-45-19s-33 7-45 19l-256 256c-12 12-19 28-19 45 0 35 29 64 64 64h128v1024h-128c-35 0-64 29-64 64 0 17 7 33 19 45l256 256c12 12 28 19 45 19s33-7 45-19l256-256c12-12 19-28 19-45z" glyph-name="arrows-v" horiz-adv-x="640" unicode="&#xf07d;"/><glyph d="M601 1277v0h267c51 0 112-37 136-83l504-878c16-24 25-53 25-84 0-35-7-53-31-94l-123-213zM474 1058l348-604h-695zM0 233v0h949l178-309h-859c-53 0-114 38-138 85h-1z" glyph-name="artstation" horiz-adv-x="1533" unicode="&#xf2ed;"/><glyph d="M888 1526v0c79 0 158-8 218-24 316-85 561-330 646-646 32-120 32-316 0-436-85-314-330-561-641-644-101-27-289-34-381-15-351 74-615 320-706 659-32 120-32 316 0 436 85 316 330 561 646 646 60 16 139 24 218 24zM1326 1231c-22-1-42-26-61-72-12-30-20-61-17-69s24-16 48-20 69-22 102-40c74-41 87-43 75-11-5 13-27 59-49 103-37 74-69 110-98 109zM295 1054c-16-1-29-10-38-29-16-33-29-232-15-227 6 2 28 27 51 56s58 64 80 78 40 29 40 33-20 26-44 49c-29 28-54 41-74 40zM1189 914c-43 0-83-15-116-46-200-189 66-669 313-563 136 58 156 284 40 459-65 97-155 150-237 150zM588 814v0c-130 0-259-168-233-401 22-197 173-304 305-217s180 323 100 486c-45 92-109 132-172 132zM955 410c-20 0-39-7-54-21-30-29-28-48 9-110 63-106 75-105 101-2 20 81 20 90-4 114-13 13-32 19-52 19zM611 667c12-4 30-13 40-21 40-29 76-98 80-154 3-34-6-84-20-113-23-48-78-89-124-93-28-2-70 10-94 28-40 29-76 98-80 154-1 17 0 44 3 60h8c32 0 66 25 76 55 2 6 3 17 3 24 0 13-6 32-13 43 17 12 47 22 67 24 15 1 39-2 54-7zM1222 793c12 0 33-5 45-9 47-16 101-70 122-122 13-31 20-83 15-115-7-52-48-108-91-125-26-10-70-11-98-1-47 16-101 70-122 122-6 16-13 42-15 59 35 7 63 41 63 77 0 21-13 48-29 61 13 16 39 36 57 43 14 6 37 10 53 10z" glyph-name="askfm" horiz-adv-x="1776" unicode="&#xf33a;"/><glyph d="M128-192c0-35-29-64-64-64s-64 29-64 64 29 64 64 64 64-29 64-64zM320 0c0-35-29-64-64-64s-64 29-64 64 29 64 64 64 64-29 64-64zM365 365l256-256-90-90-256 256zM704 384c0-35-29-64-64-64s-64 29-64 64 29 64 64 64 64-29 64-64zM1411 704c0-166-78-255-146-334-63-72-113-129-113-242 0-212-172-384-384-384-35 0-64 29-64 64s29 64 64 64c141 0 256 115 256 256 0 161 77 249 144 326 62 71 115 132 115 250 0 247-201 448-448 448s-448-201-448-448c0-35-29-64-64-64s-64 29-64 64c0 318 258 576 576 576s576-258 576-576zM896 576c0-35-29-64-64-64s-64 29-64 64 29 64 64 64 64-29 64-64zM1184 704c0-35-29-64-64-64s-64 29-64 64c0 124-100 224-224 224-123 0-224-100-224-224 0-35-29-64-64-64s-64 29-64 64c0 194 158 352 352 352s352-158 352-352zM1578 993c13-33-4-70-37-83-7-3-15-4-23-4-25 0-50 15-59 41-45 117-123 219-224 295-28 21-34 61-13 89 22 28 62 34 90 13 120-90 212-212 266-351zM1788 1074c12-33-4-70-37-83-8-3-15-4-23-4-26 0-50 15-60 41-60 156-163 292-297 393-29 21-34 61-13 89 21 29 61 34 89 13 154-115 272-271 341-449z" glyph-name="assistive-listening-systems" horiz-adv-x="1792" unicode="&#xf2a2;"/><glyph d="M1364 486c61-35 82-114 47-175l-64-110c-35-61-114-82-175-47l-266 153v-307c0-70-58-128-128-128h-128c-70 0-128 58-128 128v307l-266-153c-61-35-140-14-175 47l-64 110c-35 61-14 140 47 175l266 154-266 154c-61 35-82 114-47 175l64 110c35 61 114 82 175 47l266-153v307c0 70 58 128 128 128h128c70 0 128-58 128-128v-307l266 153c61 35 140 14 175-47l64-110c35-61 14-140-47-175l-266-154z" glyph-name="asterisk" horiz-adv-x="1428" unicode="&#xf069;"/><glyph d="M972 761c0 144-75 230-201 230-166 0-344-165-344-432 0-149 74-234 204-234 201 0 341 230 341 436zM1536 640c0-311-222-428-412-434-13 0-18-1-32-1-62 0-111 18-142 53-19 22-30 50-33 83-62-78-170-154-305-154-215 0-338 133-338 365 0 319 221 578 491 578 117 0 211-50 261-135l2 19 11 56c1 8 8 18 15 18h118c5 0 10-7 13-11 3-3 4-11 3-16l-120-614c-4-19-5-34-5-48 0-54 16-65 57-65 68 2 288 30 288 306 0 389-251 640-640 640-353 0-640-287-640-640s287-640 640-640c147 0 291 51 405 144 14 12 34 10 45-4l41-49c5-7 8-15 7-24-1-8-5-16-12-22-136-111-309-173-486-173-423 0-768 345-768 768s345 768 768 768c459 0 768-309 768-768z" glyph-name="at" unicode="&#xf1fa;"/><glyph d="M768 1407v0c144 0 278-39 393-108 31-19 46-30 46-48 0-73-206-150-472-150-268 0-419 70-419 135 0 22 19 39 54 60 116 71 253 111 398 111zM273 1226v0c1 0 0-1-1-2-22-27-31-53-31-79 0-72 57-185 362-185 416 0 677 151 677 236 0 7-2 13-5 18-1 1 0 2 1 1 25-23 48-46 73-74 38-43 53-66 53-104 0-107-166-228-539-228-350 0-725 108-725 257 0 10 10 28 25 47 32 41 68 78 108 112 1 0 2 1 2 1zM1456 979v0s1 0 1-1c18-36 40-89 51-133 10-40 10-69 2-97-43-152-307-235-646-235-556 0-794 160-841 260-6 12-7 20-4 37 7 39 32 114 55 159 1 1 1 1 1 0-4-15-6-30-6-45 0-153 253-274 557-274 281 0 837 129 830 328v1zM1534 683v0s1-1 1-2c1-13 1-25 1-41 0-67-9-146-28-190-26-61-154-248-714-248-411 0-649 139-744 238-21 22-36 49-39 67-7 36-11 91-11 133 0 2 2 2 2 0 34-125 219-308 612-308 413 0 891 200 919 350 0 1 1 1 1 1zM1482 360v0c1 0 1-1 1-2-13-33-30-67-47-96-29-50-61-86-95-114-124-102-332-154-521-154-359 0-649 111-745 315-1 2 0 2 1 1 103-149 366-227 610-227 345 0 679 106 795 276 0 1 1 1 1 1zM1274 64v0c1 0 1-1 0-2-135-118-312-190-506-190-177 0-341 60-471 161-1 1-1 3 1 2 84-47 234-100 470-100 272 0 444 89 505 129h1z" glyph-name="att" unicode="&#xf31e;"/><glyph d="M504 542h171l-1 265zM1530 641c0 111-64 193-197 193h-54v-388h52c125 0 199 91 199 195zM956 1018l1-756c0-19-15-34-33-34h-216c-18 0-33 15-33 34v62h-291l-55-81c-6-9-17-15-28-15h-267c-28 0-44 31-27 53l556 757c6 9 16 14 27 14h332c19 0 34-15 34-34zM1783 641c0-263-192-413-450-413h-270c-19 0-34 15-34 34v756c0 19 15 34 34 34h268c260 0 452-148 452-411zM1939 640c0 0 4-260-148-413h-51c136 162 139 414 139 414s2 198-135 410h43c148-169 152-411 152-411zM2123 640c0 0 4-260-149-413h-51c136 162 139 414 139 414s2 198-134 410h43c148-169 152-411 152-411zM2304 640c0 0 4-260-148-413h-51c135 162 138 414 138 414s2 198-134 410h43c148-169 152-411 152-411z" glyph-name="audio-description" horiz-adv-x="2304" unicode="&#xf29e;"/><glyph d="M1497 1395c25 25 45 16 45-19v-1472c0-35-20-44-45-19l-710 710c-6 6-10 12-13 19v-710c0-35-20-44-45-19l-710 710c-25 25-25 65 0 90l710 710c25 25 45 16 45-19v-710c3 7 7 13 13 19z" glyph-name="backward" horiz-adv-x="1542" unicode="&#xf04a;"/><glyph d="M1728 1088l-384-704h768zM448 1088l-384-704h768zM1269 1280c-19-54-63-98-117-117v-1291h608c18 0 32-14 32-32v-64c0-18-14-32-32-32h-1344c-18 0-32 14-32 32v64c0 18 14 32 32 32h608v1291c-54 19-98 63-117 117h-491c-18 0-32 14-32 32v64c0 18 14 32 32 32h491c27 75 97 128 181 128s154-53 181-128h491c18 0 32-14 32-32v-64c0-18-14-32-32-32h-491zM1088 1264c44 0 80 36 80 80s-36 80-80 80-80-36-80-80 36-80 80-80zM2176 384c0-206-285-288-448-288s-448 82-448 288c0 39 349 657 392 735 11 20 33 33 56 33s45-13 56-33c43-78 392-696 392-735zM896 384c0-206-285-288-448-288s-448 82-448 288c0 39 349 657 392 735 11 20 33 33 56 33s45-13 56-33c43-78 392-696 392-735z" glyph-name="balance-scale" horiz-adv-x="2176" unicode="&#xf24e;"/><glyph d="M1312 643c0 109-32 210-87 295l-754-753c86-56 188-89 297-89 300 0 544 245 544 547zM313 344l755 754c-86 58-189 91-300 91-300 0-544-245-544-546 0-111 33-213 89-299zM1536 643c0-426-344-771-768-771s-768 345-768 771c0 425 344 770 768 770s768-345 768-770z" glyph-name="ban" unicode="&#xf05e;"/><glyph d="M1070 358l306 564h-654l-306-564h654zM1792 640c0-495-401-896-896-896s-896 401-896 896 401 896 896 896 896-401 896-896z" glyph-name="bandcamp" horiz-adv-x="1792" unicode="&#xf2d5;"/><glyph d="M640 640v-512h-256v512h256zM1024 1152v-1024h-256v1024h256zM2048 0v-128h-2048v1536h128v-1408h1920zM1408 896v-768h-256v768h256zM1792 1280v-1152h-256v1152h256z" glyph-name="bar-chart" horiz-adv-x="2048" unicode="&#xf080;"/><glyph d="M0 1404h128v-1532h-128v1532zM2048 1408h128v-1536h-128v1536zM256 1408h128v-1280h-128v1280zM512 1408h256v-1280h-256v1280zM1280 1408h256v-1280h-256v1280zM1792 1408h128v-1280h-128v1280zM1024 1408h128v-1280h-128v1280zM256 0h128v-128h-128v128zM512 0h128v-128h-128v128zM768 0h128v-128h-128v128zM1024 0h128v-128h-128v128zM1280 0h128v-128h-128v128zM1536 0h128v-128h-128v128zM1792 0h128v-128h-128v128z" glyph-name="barcode" horiz-adv-x="2176" unicode="&#xf02a;"/><glyph d="M1536 192v-128c0-35-29-64-64-64h-1408c-35 0-64 29-64 64v128c0 35 29 64 64 64h1408c35 0 64-29 64-64zM1536 704v-128c0-35-29-64-64-64h-1408c-35 0-64 29-64 64v128c0 35 29 64 64 64h1408c35 0 64-29 64-64zM1536 1216v-128c0-35-29-64-64-64h-1408c-35 0-64 29-64 64v128c0 35 29 64 64 64h1408c35 0 64-29 64-64z" glyph-name="bars" unicode="&#xf0c9;"/><glyph d="M1664 448v-192c0-114-50-215-128-286v-194c0-18-14-32-32-32h-64c-18 0-32 14-32 32v118c-40-14-83-22-128-22h-768c-45 0-88 8-128 22v-110c0-22-14-40-32-40h-64c-18 0-32 18-32 40v186c-78 71-128 172-128 286v192h1536zM704 864c0-18-14-32-32-32s-32 14-32 32 14 32 32 32 32-14 32-32zM768 928c0-18-14-32-32-32s-32 14-32 32 14 32 32 32 32-14 32-32zM704 992c0-18-14-32-32-32s-32 14-32 32 14 32 32 32 32-14 32-32zM832 992c0-18-14-32-32-32s-32 14-32 32 14 32 32 32 32-14 32-32zM768 1056c0-18-14-32-32-32s-32 14-32 32 14 32 32 32 32-14 32-32zM704 1120c0-18-14-32-32-32s-32 14-32 32 14 32 32 32 32-14 32-32zM1792 608v-64c0-18-14-32-32-32h-1728c-18 0-32 14-32 32v64c0 18 14 32 32 32h96v640c0 141 115 256 256 256 72 0 137-30 184-78 62 25 136 16 191-27l22 22c6 6 16 6 22 0l42-42c6-6 6-16 0-22l-314-314c-6-6-16-6-22 0l-42 42c-6 6-6 16 0 22l22 22c-48 61-54 145-17 212-23 22-54 35-88 35-71 0-128-57-128-128v-640h1504c18 0 32-14 32-32zM896 1056c0-18-14-32-32-32s-32 14-32 32 14 32 32 32 32-14 32-32zM832 1120c0-18-14-32-32-32s-32 14-32 32 14 32 32 32 32-14 32-32zM768 1184c0-18-14-32-32-32s-32 14-32 32 14 32 32 32 32-14 32-32zM960 1120c0-18-14-32-32-32s-32 14-32 32 14 32 32 32 32-14 32-32zM896 1184c0-18-14-32-32-32s-32 14-32 32 14 32 32 32 32-14 32-32zM832 1248c0-18-14-32-32-32s-32 14-32 32 14 32 32 32 32-14 32-32zM1024 1184c0-18-14-32-32-32s-32 14-32 32 14 32 32 32 32-14 32-32zM960 1248c0-18-14-32-32-32s-32 14-32 32 14 32 32 32 32-14 32-32zM1088 1248c0-18-14-32-32-32s-32 14-32 32 14 32 32 32 32-14 32-32z" glyph-name="bath" horiz-adv-x="1792" unicode="&#xf2cd;"/><glyph d="M2176 960c71 0 128-57 128-128v-384c0-71-57-128-128-128v-160c0-88-72-160-160-160h-1856c-88 0-160 72-160 160v960c0 88 72 160 160 160h1856c88 0 160-72 160-160v-160zM2176 448v384h-128v288c0 18-14 32-32 32h-1856c-18 0-32-14-32-32v-960c0-18 14-32 32-32h1856c18 0 32 14 32 32v288h128z" glyph-name="battery-empty" horiz-adv-x="2304" unicode="&#xf244;"/><glyph d="M1920 1024v-768h-1664v768h1664zM2048 448h128v384h-128v288c0 18-14 32-32 32h-1856c-18 0-32-14-32-32v-960c0-18 14-32 32-32h1856c18 0 32 14 32 32v288zM2304 832v-384c0-71-57-128-128-128v-160c0-88-72-160-160-160h-1856c-88 0-160 72-160 160v960c0 88 72 160 160 160h1856c88 0 160-72 160-160v-160c71 0 128-57 128-128z" glyph-name="battery-full" horiz-adv-x="2304" unicode="&#xf240;"/><glyph d="M256 256v768h896v-768h-896zM2176 960c71 0 128-57 128-128v-384c0-71-57-128-128-128v-160c0-88-72-160-160-160h-1856c-88 0-160 72-160 160v960c0 88 72 160 160 160h1856c88 0 160-72 160-160v-160zM2176 448v384h-128v288c0 18-14 32-32 32h-1856c-18 0-32-14-32-32v-960c0-18 14-32 32-32h1856c18 0 32 14 32 32v288h128z" glyph-name="battery-half" horiz-adv-x="2304" unicode="&#xf242;"/><glyph d="M256 256v768h512v-768h-512zM2176 960c71 0 128-57 128-128v-384c0-71-57-128-128-128v-160c0-88-72-160-160-160h-1856c-88 0-160 72-160 160v960c0 88 72 160 160 160h1856c88 0 160-72 160-160v-160zM2176 448v384h-128v288c0 18-14 32-32 32h-1856c-18 0-32-14-32-32v-960c0-18 14-32 32-32h1856c18 0 32 14 32 32v288h128z" glyph-name="battery-quarter" horiz-adv-x="2304" unicode="&#xf243;"/><glyph d="M256 256v768h1280v-768h-1280zM2176 960c71 0 128-57 128-128v-384c0-71-57-128-128-128v-160c0-88-72-160-160-160h-1856c-88 0-160 72-160 160v960c0 88 72 160 160 160h1856c88 0 160-72 160-160v-160zM2176 448v384h-128v288c0 18-14 32-32 32h-1856c-18 0-32-14-32-32v-960c0-18 14-32 32-32h1856c18 0 32 14 32 32v288h128z" glyph-name="battery-three-quarters" horiz-adv-x="2304" unicode="&#xf241;"/><glyph d="M256 512h1728c35 0 64-29 64-64v-448h-256v256h-1536v-256h-256v1216c0 35 29 64 64 64h128c35 0 64-29 64-64v-704zM832 832c0-141-115-256-256-256s-256 115-256 256 115 256 256 256 256-115 256-256zM2048 576h-1152v384c0 35 29 64 64 64h704c212 0 384-172 384-384v-64z" glyph-name="bed" horiz-adv-x="2048" unicode="&#xf236;"/><glyph d="M576 640v384h-256v-256c0-71 57-128 128-128h128zM1600 192v-192h-1152v192l128 192h-128c-212 0-384 172-384 384v320l-64 64 32 128h480l32 128h960l32-192-64-32v-800z" glyph-name="beer" horiz-adv-x="1600" unicode="&#xf0fc;"/><glyph d="M1848 1197v-124h-511v124h511zM1596 771c-120 0-200-75-208-195h408c-11 121-74 195-200 195zM1612 186c76 0 174 41 198 119h221c-68-209-209-307-427-307-288 0-467 195-467 479 0 274 189 483 467 483 286 0 444-225 444-495 0-16-1-32-2-47h-658c0-146 77-232 224-232zM277 236h296c113 0 205 40 205 167 0 129-77 180-199 180h-302v-347zM277 773h281c99 0 169 43 169 150 0 116-90 144-190 144h-260v-294zM0 1282h594c216 0 403-61 403-312 0-127-59-209-172-263 155-44 230-161 230-319 0-256-215-366-444-366h-611v1260z" glyph-name="behance" horiz-adv-x="2048" unicode="&#xf1b4;"/><glyph d="M1248 1408c159 0 288-129 288-288v-960c0-159-129-288-288-288h-960c-159 0-288 129-288 288v960c0 159 129 288 288 288h960zM499 1041h-371v-787h382c143 0 277 68 277 228 0 99-47 172-143 200 70 34 107 85 107 164 0 157-117 195-252 195zM477 723h-176v184h163c62 0 119-17 119-90 0-67-44-94-106-94zM486 388h-185v217h189c76 0 124-33 124-113s-57-104-128-104zM1136 356c-92 0-140 54-140 145h411c1 10 1 20 1 30 0 168-99 309-278 309-173 0-292-131-292-302 0-178 112-299 292-299 137 0 225 61 267 191h-138c-15-48-76-74-123-74zM1126 722c78 0 117-47 124-122h-254c5 75 55 122 130 122zM964 988v-77h319v77h-319z" glyph-name="behance-square" unicode="&#xf1b5;"/><glyph d="M848-160c0 9-7 16-16 16-79 0-144 65-144 144 0 9-7 16-16 16s-16-7-16-16c0-97 79-176 176-176 9 0 16 7 16 16zM182 128h1300c-179 202-266 476-266 832 0 129-122 320-384 320s-384-191-384-320c0-356-87-630-266-832zM1664 128c0-70-58-128-128-128h-448c0-141-115-256-256-256s-256 115-256 256h-448c-70 0-128 58-128 128 148 125 320 349 320 832 0 192 159 402 424 441-5 12-8 25-8 39 0 53 43 96 96 96s96-43 96-96c0-14-3-27-8-39 265-39 424-249 424-441 0-483 172-707 320-832z" glyph-name="bell" horiz-adv-x="1664" unicode="&#xf0f3;"/><glyph d="M848-160c0 9-7 16-16 16-79 0-144 65-144 144 0 9-7 16-16 16s-16-7-16-16c0-97 79-176 176-176 9 0 16 7 16 16zM1664 128c0-70-58-128-128-128h-448c0-141-115-256-256-256s-256 115-256 256h-448c-70 0-128 58-128 128 148 125 320 349 320 832 0 192 159 402 424 441-5 12-8 25-8 39 0 53 43 96 96 96s96-43 96-96c0-14-3-27-8-39 265-39 424-249 424-441 0-483 172-707 320-832z" glyph-name="bell-o" horiz-adv-x="1664" unicode="&#xf0a2;"/><glyph d="M832 1536c53 0 96-43 96-96 0-14-3-27-8-39 265-39 424-249 424-441 0-483 172-707 320-832 0-70-58-128-128-128h-448c0-141-115-256-256-256s-256 115-256 256h-448c-70 0-128 58-128 128 148 125 320 349 320 832 0 192 159 402 424 441-5 12-8 25-8 39 0 53 43 96 96 96zM277 1455l86-94c-120-110-172-242-171-401h-128c-1 189 67 362 213 495zM1387 1455v0c146-133 214-306 213-495h-128c1 159-51 291-171 401zM672 16c-9 0-16-7-16-16 0-97 79-176 176-176 9 0 16 7 16 16s-7 16-16 16c-79 0-144 65-144 144 0 9-7 16-16 16z" glyph-name="bell-rigning-o" horiz-adv-x="1664" unicode="&#xf330;"/><glyph d="M832 1536c53 0 96-43 96-96 0-14-3-27-8-39 265-39 424-249 424-441 0-483 172-707 320-832 0-70-58-128-128-128h-448c0-141-115-256-256-256s-256 115-256 256h-448c-70 0-128 58-128 128 148 125 320 349 320 832 0 192 159 402 424 441-5 12-8 25-8 39 0 53 43 96 96 96zM277 1455l86-94c-120-110-172-242-171-401h-128c-1 189 67 362 213 495zM1387 1455v0c146-133 214-306 213-495h-128c1 159-51 291-171 401zM832 1280c-262 0-384-191-384-320 0-356-87-630-266-832h1300c-179 202-266 476-266 832 0 129-122 320-384 320zM672 16c-9 0-16-7-16-16 0-97 79-176 176-176 9 0 16 7 16 16s-7 16-16 16c-79 0-144 65-144 144 0 9-7 16-16 16z" glyph-name="bell-ringing" horiz-adv-x="1664" unicode="&#xf32d;"/><glyph d="M1544 684c51-298 182-458 298-556 0-70-58-128-128-128h-448c0-141-115-256-256-256s-255 114-256 255zM1010-176c9 0 16 7 16 16s-7 16-16 16c-79 0-144 65-144 144 0 9-7 16-16 16s-16-7-16-16c0-97 79-176 176-176zM2012 1424c11-14 10-34-3-46l-1872-1622c-13-11-34-10-45 4l-84 96c-11 14-10 34 3 45l186 161c-12 20-19 42-19 66 148 125 320 349 320 832 0 192 159 402 424 441-5 12-8 25-8 39 0 53 43 96 96 96s96-43 96-96c0-14-3-27-8-39 172-25 299-122 367-240l418 363c13 11 34 10 45-4z" glyph-name="bell-slash" horiz-adv-x="2019" unicode="&#xf1f6;"/><glyph d="M1026-160c0 9-7 16-16 16-79 0-144 65-144 144 0 9-7 16-16 16s-16-7-16-16c0-97 79-176 176-176 9 0 16 7 16 16zM489 315l877 760c-50 105-166 205-356 205-262 0-384-191-384-320 0-256-45-470-137-645zM1842 128c0-70-58-128-128-128h-448c0-141-115-256-256-256s-255 114-256 255l149 129h757c-111 125-186 277-227 459l111 97c51-298 182-458 298-556zM1928 1520l84-96c11-14 10-34-3-46l-1872-1622c-13-11-34-10-45 4l-84 96c-11 14-10 34 3 45l186 161c-12 20-19 42-19 66 148 125 320 349 320 832 0 192 159 402 424 441-5 12-8 25-8 39 0 53 43 96 96 96s96-43 96-96c0-14-3-27-8-39 172-25 299-122 367-240l418 363c13 11 34 10 45-4z" glyph-name="bell-slash-o" horiz-adv-x="2019" unicode="&#xf1f7;"/><glyph d="M762 384h-314c-53 0-83 60-51 102l188 251c-42 20-88 31-137 31-176 0-320-144-320-320s144-320 320-320c155 0 284 110 314 256zM576 512h186c-12 56-38 107-75 148zM1056 512l288 384h-480l-99-132c67-66 112-154 126-252h165zM2176 448c0 176-144 320-320 320-43 0-83-9-121-24l174-260c20-30 12-70-17-89-11-8-24-11-36-11-21 0-41 10-53 29l-174 260c-57-58-93-137-93-225 0-176 144-320 320-320s320 144 320 320zM2304 448c0-247-201-448-448-448s-448 201-448 448c0 132 58 251 149 333l-65 98-353-469c-12-17-31-26-51-26h-197c-31-217-217-384-443-384-247 0-448 201-448 448s201 448 448 448c78 0 151-20 215-55l137 183h-224c-35 0-64 29-64 64s29 64 64 64h384v-128h435l-85 128h-222c-35 0-64 29-64 64s29 64 64 64h256c21 0 41-11 53-28l267-400c58 28 123 44 192 44 247 0 448-201 448-448z" glyph-name="bicycle" horiz-adv-x="2304" unicode="&#xf206;"/><glyph d="M704 1216v-768c0-35-29-64-64-64v-576c0-35-29-64-64-64h-512c-35 0-64 29-64 64v512l249 873c4 14 17 23 31 23h424zM1024 1216v-704h-256v704h256zM1792 320v-512c0-35-29-64-64-64h-512c-35 0-64 29-64 64v576c-35 0-64 29-64 64v768h424c14 0 27-9 31-23zM736 1504v-224h-352v224c0 18 14 32 32 32h288c18 0 32-14 32-32zM1408 1504v-224h-352v224c0 18 14 32 32 32h288c18 0 32-14 32-32z" glyph-name="binoculars" horiz-adv-x="1792" unicode="&#xf1e5;"/><glyph d="M1419 640c0-147-120-267-267-267s-267 120-267 267 120 267 267 267 267-120 267-267zM0 1222h2304v-521h-769c-29 185-190 327-383 327s-354-142-383-327h-769v521zM0 579h769c29-185 190-327 383-327s354 142 383 327h769v-521h-2304v521z" glyph-name="biometric" horiz-adv-x="2304" unicode="&#xf32b;"/><glyph d="M1792 128v-384h-1792v384c98 0 150 44 191 79 34 30 57 49 108 49s73-19 108-49c41-35 92-79 191-79 98 0 149 44 191 79 34 30 56 49 107 49s74-19 108-49c41-35 93-79 191-79s150 44 191 79c34 30 57 49 108 49 50 0 73-19 107-49 41-35 93-79 191-79zM1792 448v-192c-51 0-73 19-108 49-41 35-92 79-190 79-99 0-150-44-191-79-35-30-57-49-108-49s-74 19-108 49c-41 35-92 79-191 79-98 0-149-44-191-79-34-30-56-49-107-49s-74 19-108 49c-41 35-93 79-191 79-99 0-150-44-191-79-34-30-57-49-108-49v192c0 106 86 192 192 192h64v448h256v-448h256v448h256v-448h256v448h256v-448h64c106 0 192-86 192-192zM512 1312c0-106-57-160-128-160s-128 57-128 128c0 124 128 92 128 256 48 0 128-118 128-224zM1024 1312c0-106-57-160-128-160s-128 57-128 128c0 124 128 92 128 256 48 0 128-118 128-224zM1536 1312c0-106-57-160-128-160s-128 57-128 128c0 124 128 92 128 256 48 0 128-118 128-224z" glyph-name="birthday-cake" horiz-adv-x="1792" unicode="&#xf1fd;"/><glyph d="M815 677c11-84-91-150-162-107-80 35-80 162-2 198 67 41 164-13 164-91zM926 698c-18 142-179 236-310 177-83-37-139-125-135-218 5-122 121-222 243-211s217 130 202 252zM1165 1240c-44 58-119 68-185 79-187 30-379 31-566-2-62-10-132-21-171-77 64-60 155-69 237-79 148-19 300-20 448-1 83 10 175 18 237 80zM1222 205c-28-98-12-230-116-287-179-99-396-110-593-75-104 19-226 52-283 150-25 96-41 194-57 292l6 16 18 9c298-197 715-197 1014 0 47-14 12-71 11-105zM1403 1166c-34-219-73-437-111-655-11-64-73-100-125-127-187-94-405-110-610-88-139 15-281 52-394 139-53 41-53 111-63 170-35 205-75 410-100 617 12 90 113 129 188 157 100 37 207 54 313 64 226 22 457 14 676-50 78-23 162-55 215-122 24-31 16-70 11-105z" glyph-name="bitbucket" horiz-adv-x="1408" unicode="&#xf171;"/><glyph d="M848 666c0 57-70 96-118 67-57-27-57-119 1-143 52-31 125 16 117 76zM928 682c11-88-58-174-146-182s-171 64-175 153c-3 66 38 130 98 157 94 42 210-26 223-128zM1100 1073c-44-45-111-51-170-58-107-14-216-13-324 0-59 8-124 15-170 58 28 40 78 48 123 55 135 24 273 23 408 1 48-7 102-15 133-56zM1142 327c0 24 25 65-9 75-215-142-515-142-731 0l-12-6-5-12c12-70 23-141 41-210 41-71 129-95 204-108 142-26 299-18 428 53 75 42 63 137 84 208zM1272 1020c4 24 9 53-8 75-38 48-98 71-155 88-158 46-325 52-487 36-77-7-154-20-226-46-54-21-127-49-136-113 18-150 47-297 72-446 8-42 8-92 46-122 81-62 184-89 284-100 148-16 305-5 440 63 38 20 82 46 90 92 28 157 55 314 80 473zM1536 1120v-960c0-159-129-288-288-288h-960c-159 0-288 129-288 288v960c0 159 129 288 288 288h960c159 0 288-129 288-288z" glyph-name="bitbucket-square" unicode="&#xf172;"/><glyph d="M0 1408h1536v-1536h-1536v1536zM1085 293l-221 631 221 297h-634l221-297-221-631 317-304z" glyph-name="black-tie" unicode="&#xf27e;"/><glyph d="M327 1225c-86 0-156 70-156 156 0 85 70 155 156 155s155-70 155-155c0-86-69-156-155-156zM878 583c0-108-115-84-141-40l-367 438c-16 26-28 14-28 14s-7-8 4-21l122-139 1-354c-86-250-161-457-161-457-47-134-86-250-120-266-41-21-71-16-103-1-42 19-54 70-51 100 0 0 2 16 197 618l5 416-85-164 35-222c13-84-58-95-58-95-68-11-82 68-82 70l-46 299c210 379 211 381 211 381 16 24 52 34 113 34 54 0 88-16 107-40l424-521c6-4 10-10 14-17l3-3-1-1c5-9 7-19 7-29zM475 433c96-255 182-448 182-448 29-74 79-180 6-222-72-42-130 7-146 41h-1c-3 8-6 16-8 25l-124 351zM1299-159c21-33 39-57 28-64-19-12-25 23-46 57 0 0-113 171-423 661 6-2 17 7 17 7s11 9 11 17c308-503 413-678 413-678z" glyph-name="blind" horiz-adv-x="1330" unicode="&#xf29d;"/><glyph d="M1374 1525c121 0 182-1 231-22 53-23 115-85 138-138 21-49 22-110 22-231v-983c0-121-1-182-22-231-23-53-85-115-138-138-49-21-110-22-231-22h-983c-121 0-182 1-231 22-53 23-115 85-138 138-21 49-22 110-22 231v983c0 121 1 182 22 231 23 53 85 115 138 138 46 21 110 22 231 22h983zM1164 520c-88 0-159-72-159-160s71-159 159-159 160 71 160 159-72 160-160 160zM601 520c-88 0-160-72-160-160s72-159 160-159 159 71 159 159-71 160-159 160v0zM1164 1084c-88 0-159-72-159-160s71-159 159-159 160 71 160 159-72 160-160 160zM601 1084c-88 0-160-72-160-160s72-159 160-159 159 71 159 159-71 160-159 160z" glyph-name="blockstack" horiz-adv-x="1765" unicode="&#xf33b;"/><glyph d="M734 483l148-148-149-149zM733 1094l149-149-148-148zM603-130l464 464-306 306 306 306-464 464v-611l-255 255-93-93 320-321-320-321 93-93 255 255v-611zM1322 640c0-710-270-896-661-896s-661 186-661 896 270 896 661 896 661-186 661-896z" glyph-name="bluetooth" horiz-adv-x="1322" unicode="&#xf293;"/><glyph d="M556 113l173 172-173 172v-344zM556 823l173 172-173 172v-344zM588 640l356-356-539-540v711l-297-296-108 108 372 373-372 373 108 108 297-296v711l539-540z" glyph-name="bluetooth-b" horiz-adv-x="944" unicode="&#xf294;"/><glyph d="M156 138c-121 285-159 376-156 379 2 3 29 27 59 53s56 50 56 53-16 112-35 243-34 239-33 240 241 90 533 198 536 198 540 200 7 3 6 1c-5-8-143-366-142-367s38 10 82 23 81 24 81 24-17-126-38-280l-37-280 47-45c26-24 46-45 46-47 0-4-201-520-204-523-2-2-164-64-624-239l-21-8z" glyph-name="boardgamegeek" horiz-adv-x="1165" unicode="&#xf33c;"/><glyph d="M555 15c44-19 92-32 140-32 228 0 376 91 376 335 0 62-8 127-41 180-93 150-227 158-388 158-30 0-73 0-101-10 0-106-1-212-1-317 0-69-9-256 15-314zM541 761c36-6 73-7 109-7 206 0 353 58 353 289 0 195-173 262-340 262-44 0-87-6-130-13 0-101 8-202 8-303 0-53-1-106-1-159 0-23 0-46 1-69zM0-128l2 94c64 16 129 17 191 43 35 59 30 163 30 230 0 22 2 978-22 1025-15 29-162 36-195 40l-4 83c238 4 476 21 713 21 45 0 91-1 136-1 226 0 475-108 475-368 0-179-136-246-277-310 190-43 359-172 359-382 0-344-313-458-606-458-88 0-176 6-264 6-179 0-360-16-538-23z" glyph-name="bold" horiz-adv-x="1408" unicode="&#xf032;"/><glyph d="M885 970c11-12 14-29 7-44l-540-1157c-8-15-24-25-42-25-4 0-9 1-14 2-22 7-35 28-30 49l197 808-406-101c-4-1-8-1-12-1-11 0-23 4-31 11-12 10-16 25-13 39l201 825c5 19 23 32 44 32h328c25 0 45-19 45-42 0-6-2-12-5-18l-171-463 396 98c4 1 8 2 12 2 13 0 25-6 34-15z" glyph-name="bolt" horiz-adv-x="896" unicode="&#xf0e7;"/><glyph d="M571 947c-13 33-50 48-83 35-144-58-260-174-318-318-13-33 2-70 35-83 8-3 16-5 24-5 26 0 49 15 60 40 45 112 135 202 247 247 33 14 49 51 35 84zM1513 1303l46-46-244-243 68-68c25-25 25-66 0-91l-64-64c56-101 89-218 89-343 0-389-315-704-704-704s-704 315-704 704 315 704 704 704c125 0 242-33 343-89l64 64c25 25 66 25 91 0l68-68zM1521 1359c-6-6-14-10-22-10-9 0-17 4-23 10l-91 90c-12 13-12 33 0 46 13 12 33 12 46 0l90-91c13-12 13-33 0-45zM1751 1129c-7-6-15-9-23-9s-16 3-23 9l-90 91c-13 12-13 33 0 45 12 13 33 13 45 0l91-90c12-13 12-33 0-46zM1792 1312c0-18-14-32-32-32h-96c-18 0-32 14-32 32s14 32 32 32h96c18 0 32-14 32-32zM1600 1504v-96c0-18-14-32-32-32s-32 14-32 32v96c0 18 14 32 32 32s32-14 32-32zM1751 1449l-91-90c-6-6-14-10-22-10-9 0-17 4-23 10-13 12-13 33 0 45l90 91c13 12 33 12 46 0 12-13 12-33 0-46z" glyph-name="bomb" horiz-adv-x="1792" unicode="&#xf1e2;"/><glyph d="M1639 1058c25-36 32-83 18-129l-275-906c-25-85-113-151-199-151h-923c-102 0-211 81-248 185-16 45-16 89-2 127 2 20 6 40 7 64 1 16-8 29-6 41 4 24 25 41 41 68 30 50 64 131 75 183 5 19-5 41 0 58 5 19 24 33 34 51 27 46 62 135 67 182 2 21-8 44-2 60 7 23 29 33 44 53 24 33 64 128 70 181 2 17-8 34-5 52 4 19 28 39 44 62 42 62 50 199 177 163l-1-3c17 4 34 9 51 9h761c47 0 89-21 114-56 26-36 32-83 18-130l-274-906c-47-154-73-188-200-188h-869c-13 0-29-3-38-15-8-12-9-21-1-43 20-58 89-70 144-70h923c37 0 80 21 91 57l300 987c6 19 6 39 5 57 23-9 44-23 59-43zM575 1056c-6-18 4-32 22-32h608c17 0 36 14 42 32l21 64c6 18-4 32-22 32h-608c-17 0-36-14-42-32zM492 800c-6-18 4-32 22-32h608c17 0 36 14 42 32l21 64c6 18-4 32-22 32h-608c-17 0-36-14-42-32z" glyph-name="book" horiz-adv-x="1664" unicode="&#xf02d;"/><glyph d="M1164 1408c15 0 30-3 44-9 44-17 72-58 72-103v-1289c0-45-28-86-72-103-14-6-29-8-44-8-31 0-60 11-83 32l-441 424-441-424c-23-21-52-33-83-33-15 0-30 3-44 9-44 17-72 58-72 103v1289c0 45 28 86 72 103 14 6 29 9 44 9h1048z" glyph-name="bookmark" horiz-adv-x="1280" unicode="&#xf02e;"/><glyph d="M1152 1280h-1024v-1242l423 406 89 85 89-85 423-406v1242zM1164 1408c15 0 30-3 44-9 44-17 72-58 72-103v-1289c0-45-28-86-72-103-14-6-29-8-44-8-31 0-60 11-83 32l-441 424-441-424c-23-21-52-33-83-33-15 0-30 3-44 9-44 17-72 58-72 103v1289c0 45 28 86 72 103 14 6 29 9 44 9h1048z" glyph-name="bookmark-o" horiz-adv-x="1280" unicode="&#xf097;"/><glyph d="M256 1408h1024c141 0 256-115 256-256v-1024c0-141-115-256-256-256h-1024c-141 0-256 115-256 256v1024c0 141 115 256 256 256zM494 1020v-795h310c169 0 270 83 270 223 0 106-69 182-177 196v4c77 14 137 91 137 174 0 119-93 198-229 198h-311zM593 933h190c97 0 150-44 150-123 0-86-64-133-181-133h-159v256zM593 592v0h187c127 0 192-47 192-139s-63-141-183-141h-196v280z" glyph-name="bootstrap" unicode="&#xf315;"/><glyph d="M192 352c-88 0-160-72-160-160s72-160 160-160 160 72 160 160-72 160-160 160zM704 352c-88 0-160-72-160-160s72-160 160-160 160 72 160 160-72 160-160 160zM704 864c-88 0-160-72-160-160s72-160 160-160 160 72 160 160-72 160-160 160zM1472 352c-88 0-160-72-160-160s72-160 160-160 160 72 160 160-72 160-160 160zM1984 352c-88 0-160-72-160-160s72-160 160-160 160 72 160 160-72 160-160 160zM1472 864c-88 0-160-72-160-160s72-160 160-160 160 72 160 160-72 160-160 160zM1984 864c-88 0-160-72-160-160s72-160 160-160 160 72 160 160-72 160-160 160zM1984 1376c-88 0-160-72-160-160s72-160 160-160 160 72 160 160-72 160-160 160zM384 192c0-106-86-192-192-192s-192 86-192 192 86 192 192 192 192-86 192-192zM896 192c0-106-86-192-192-192s-192 86-192 192 86 192 192 192 192-86 192-192zM384 704c0-106-86-192-192-192s-192 86-192 192 86 192 192 192 192-86 192-192zM896 704c0-106-86-192-192-192s-192 86-192 192 86 192 192 192 192-86 192-192zM384 1216c0-106-86-192-192-192s-192 86-192 192 86 192 192 192 192-86 192-192zM1664 192c0-106-86-192-192-192s-192 86-192 192 86 192 192 192 192-86 192-192zM896 1216c0-106-86-192-192-192s-192 86-192 192 86 192 192 192 192-86 192-192zM2176 192c0-106-86-192-192-192s-192 86-192 192 86 192 192 192 192-86 192-192zM1664 704c0-106-86-192-192-192s-192 86-192 192 86 192 192 192 192-86 192-192zM2176 704c0-106-86-192-192-192s-192 86-192 192 86 192 192 192 192-86 192-192zM1664 1216c0-106-86-192-192-192s-192 86-192 192 86 192 192 192 192-86 192-192zM2176 1216c0-106-86-192-192-192s-192 86-192 192 86 192 192 192 192-86 192-192z" glyph-name="braille" horiz-adv-x="2176" unicode="&#xf2a1;"/><glyph d="M640 1280h512v128h-512v-128zM1792 640v-480c0-88-72-160-160-160h-1472c-88 0-160 72-160 160v480h672v-160c0-35 29-64 64-64h320c35 0 64 29 64 64v160h672zM1024 640v-128h-256v128h256zM1792 1120v-384h-1792v384c0 88 72 160 160 160h352v160c0 53 43 96 96 96h576c53 0 96-43 96-96v-160h352c88 0 160-72 160-160z" glyph-name="briefcase" horiz-adv-x="1792" unicode="&#xf0b1;"/><glyph d="M1111 896c13-133-43-213-131-258 146-35 238-122 220-317-23-243-203-308-461-322v-255h-154v251c-39 0-80 0-122 1v-252h-154v255c-36 0-72 1-109 1h-200l31 183c113-2 111 0 111 0 43 0 55 31 58 51v402h16c-6 1-12 1-16 1v287c-6 32-26 68-89 68 0 0 2 2-111 0v164l212-1c31 0 64 0 97 1v252h154v-247c41 1 82 2 122 2v245h154v-252c198-17 355-78 372-260zM896 351c0 198-326 169-430 169v-338c104 0 430-22 430 169zM825 827c0 181-272 154-359 154v-307c87 0 359-20 359 153z" glyph-name="btc" horiz-adv-x="1202" unicode="&#xf15a;"/><glyph d="M1600 576c0-35-29-64-64-64h-224c0-125-27-219-67-290l208-209c25-25 25-65 0-90-12-13-29-19-45-19s-33 6-45 19l-198 197s-131-120-301-120v896h-128v-896c-181 0-313 132-313 132l-183-207c-13-14-30-21-48-21-15 0-30 5-43 16-26 24-28 64-5 91l202 227c-35 69-58 158-58 274h-224c-35 0-64 29-64 64s29 64 64 64h224v294l-173 173c-25 25-25 65 0 90s65 25 90 0l173-173h844l173 173c25 25 65 25 90 0s25-65 0-90l-173-173v-294h224c35 0 64-29 64-64zM1120 1152h-640c0 177 143 320 320 320s320-143 320-320z" glyph-name="bug" horiz-adv-x="1600" unicode="&#xf188;"/><glyph d="M1344 1536c35 0 64-29 64-64v-1664c0-35-29-64-64-64h-1280c-35 0-64 29-64 64v1664c0 35 29 64 64 64h1280zM512 1248v-64c0-18 14-32 32-32h64c18 0 32 14 32 32v64c0 18-14 32-32 32h-64c-18 0-32-14-32-32zM512 992v-64c0-18 14-32 32-32h64c18 0 32 14 32 32v64c0 18-14 32-32 32h-64c-18 0-32-14-32-32zM512 736v-64c0-18 14-32 32-32h64c18 0 32 14 32 32v64c0 18-14 32-32 32h-64c-18 0-32-14-32-32zM512 480v-64c0-18 14-32 32-32h64c18 0 32 14 32 32v64c0 18-14 32-32 32h-64c-18 0-32-14-32-32zM384 160v64c0 18-14 32-32 32h-64c-18 0-32-14-32-32v-64c0-18 14-32 32-32h64c18 0 32 14 32 32zM384 416v64c0 18-14 32-32 32h-64c-18 0-32-14-32-32v-64c0-18 14-32 32-32h64c18 0 32 14 32 32zM384 672v64c0 18-14 32-32 32h-64c-18 0-32-14-32-32v-64c0-18 14-32 32-32h64c18 0 32 14 32 32zM384 928v64c0 18-14 32-32 32h-64c-18 0-32-14-32-32v-64c0-18 14-32 32-32h64c18 0 32 14 32 32zM384 1184v64c0 18-14 32-32 32h-64c-18 0-32-14-32-32v-64c0-18 14-32 32-32h64c18 0 32 14 32 32zM896-96v192c0 18-14 32-32 32h-320c-18 0-32-14-32-32v-192c0-18 14-32 32-32h320c18 0 32 14 32 32zM896 416v64c0 18-14 32-32 32h-64c-18 0-32-14-32-32v-64c0-18 14-32 32-32h64c18 0 32 14 32 32zM896 672v64c0 18-14 32-32 32h-64c-18 0-32-14-32-32v-64c0-18 14-32 32-32h64c18 0 32 14 32 32zM896 928v64c0 18-14 32-32 32h-64c-18 0-32-14-32-32v-64c0-18 14-32 32-32h64c18 0 32 14 32 32zM896 1184v64c0 18-14 32-32 32h-64c-18 0-32-14-32-32v-64c0-18 14-32 32-32h64c18 0 32 14 32 32zM1152 160v64c0 18-14 32-32 32h-64c-18 0-32-14-32-32v-64c0-18 14-32 32-32h64c18 0 32 14 32 32zM1152 416v64c0 18-14 32-32 32h-64c-18 0-32-14-32-32v-64c0-18 14-32 32-32h64c18 0 32 14 32 32zM1152 672v64c0 18-14 32-32 32h-64c-18 0-32-14-32-32v-64c0-18 14-32 32-32h64c18 0 32 14 32 32zM1152 928v64c0 18-14 32-32 32h-64c-18 0-32-14-32-32v-64c0-18 14-32 32-32h64c18 0 32 14 32 32zM1152 1184v64c0 18-14 32-32 32h-64c-18 0-32-14-32-32v-64c0-18 14-32 32-32h64c18 0 32 14 32 32z" glyph-name="building" horiz-adv-x="1408" unicode="&#xf1ad;"/><glyph d="M384 224v-64c0-17-15-32-32-32h-64c-17 0-32 15-32 32v64c0 17 15 32 32 32h64c17 0 32-15 32-32zM384 480v-64c0-17-15-32-32-32h-64c-17 0-32 15-32 32v64c0 17 15 32 32 32h64c17 0 32-15 32-32zM640 480v-64c0-17-15-32-32-32h-64c-17 0-32 15-32 32v64c0 17 15 32 32 32h64c17 0 32-15 32-32zM384 736v-64c0-17-15-32-32-32h-64c-17 0-32 15-32 32v64c0 17 15 32 32 32h64c17 0 32-15 32-32zM1152 224v-64c0-17-15-32-32-32h-64c-17 0-32 15-32 32v64c0 17 15 32 32 32h64c17 0 32-15 32-32zM896 480v-64c0-17-15-32-32-32h-64c-17 0-32 15-32 32v64c0 17 15 32 32 32h64c17 0 32-15 32-32zM640 736v-64c0-17-15-32-32-32h-64c-17 0-32 15-32 32v64c0 17 15 32 32 32h64c17 0 32-15 32-32zM384 992v-64c0-17-15-32-32-32h-64c-17 0-32 15-32 32v64c0 17 15 32 32 32h64c17 0 32-15 32-32zM1152 480v-64c0-17-15-32-32-32h-64c-17 0-32 15-32 32v64c0 17 15 32 32 32h64c17 0 32-15 32-32zM896 736v-64c0-17-15-32-32-32h-64c-17 0-32 15-32 32v64c0 17 15 32 32 32h64c17 0 32-15 32-32zM640 992v-64c0-17-15-32-32-32h-64c-17 0-32 15-32 32v64c0 17 15 32 32 32h64c17 0 32-15 32-32zM384 1248v-64c0-17-15-32-32-32h-64c-17 0-32 15-32 32v64c0 17 15 32 32 32h64c17 0 32-15 32-32zM1152 736v-64c0-17-15-32-32-32h-64c-17 0-32 15-32 32v64c0 17 15 32 32 32h64c17 0 32-15 32-32zM896 992v-64c0-17-15-32-32-32h-64c-17 0-32 15-32 32v64c0 17 15 32 32 32h64c17 0 32-15 32-32zM640 1248v-64c0-17-15-32-32-32h-64c-17 0-32 15-32 32v64c0 17 15 32 32 32h64c17 0 32-15 32-32zM1152 992v-64c0-17-15-32-32-32h-64c-17 0-32 15-32 32v64c0 17 15 32 32 32h64c17 0 32-15 32-32zM896 1248v-64c0-17-15-32-32-32h-64c-17 0-32 15-32 32v64c0 17 15 32 32 32h64c17 0 32-15 32-32zM1152 1248v-64c0-17-15-32-32-32h-64c-17 0-32 15-32 32v64c0 17 15 32 32 32h64c17 0 32-15 32-32zM896-128h384v1536h-1152v-1536h384v224c0 17 15 32 32 32h320c17 0 32-15 32-32v-224zM1408 1472v-1664c0-35-29-64-64-64h-1280c-35 0-64 29-64 64v1664c0 35 29 64 64 64h1280c35 0 64-29 64-64z" glyph-name="building-o" horiz-adv-x="1408" unicode="&#xf0f7;"/><glyph d="M1664 896c71 0 128-57 128-128s-57-128-128-128v-384c0-70-58-128-128-128-178 148-465 351-812 380-119-40-160-179-82-259-70-115 20-196 126-279-62-122-320-124-412-39-58 178-144 356-74 581h-122c-88 0-160 72-160 160v192c0 88 72 160 160 160h480c384 0 704 224 896 384 70 0 128-58 128-128v-384zM1536 292v954c-261-200-514-315-768-343v-270c254-28 507-141 768-341z" glyph-name="bullhorn" horiz-adv-x="1792" unicode="&#xf0a1;"/><glyph d="M1024 640c0-141-115-256-256-256s-256 115-256 256 115 256 256 256 256-115 256-256zM1152 640c0 212-172 384-384 384s-384-172-384-384 172-384 384-384 384 172 384 384zM1280 640c0-283-229-512-512-512s-512 229-512 512 229 512 512 512 512-229 512-512zM1408 640c0 353-287 640-640 640s-640-287-640-640 287-640 640-640 640 287 640 640zM1536 640c0-424-344-768-768-768s-768 344-768 768 344 768 768 768 768-344 768-768z" glyph-name="bullseye" unicode="&#xf140;"/><glyph d="M540-256c-26 1-53 4-78 9h-2-4c-16-2-32-4-51-5-11-1-26-2-39-2-18-1-39-1-57 0-108 3-204 23-259 55-29 17-46 35-49 56 0 3-1 5-1 8s0 5 1 8c3 15 11 29 27 42 25 21 67 37 121 50 2 0 4 1 4 1s-1 1-2 3c-11 19-21 37-29 57-28 66-41 137-37 208 4 63 33 158 65 212 30 50 70 94 116 130 17 13 36 25 55 36 2 1 3 2 3 2s0 1-1 2c-15 20-27 42-36 65-15 39-22 82-18 124 3 30 10 59 22 87 4 10 12 25 17 34 1 1 1 2 1 2v1c-1 2-6 7-8 10-36 48-70 121-96 204-23 73-37 150-40 216v21 25c2 49 12 86 28 108 10 13 23 21 37 23 9 1 18 0 27-4 3-1 4-3 7-4 14-7 30-19 45-37 19-22 39-53 57-89 28-56 52-124 68-194 12-53 20-105 22-151v-10 0s2 1 3 1c24 8 49 13 75 14h29c38-2 73-11 107-27l4-2c2-1 5-3 5-3s0 1 1 2 2 4 3 5c35 65 94 139 163 203 62 58 128 103 182 126 32 14 59 20 81 17 12-1 23-5 31-12l6-6c7-8 10-17 12-29 1-4 1-6 1-12s0-8-1-13c-4-34-23-78-55-127-44-68-109-140-178-198-42-35-82-62-120-82-1-1-3-2-3-2s1 0 1-1c14-30 22-62 25-95 1-17 2-35 0-52-5-50-23-97-53-137-1-1-2-3-2-3s0-1 1-1c2-1 9-5 13-7 23-14 57-40 77-58 8-7 18-17 25-25 36-39 66-85 87-134 18-42 34-112 36-158 0-6 1-17 1-23s-1-17-1-23c-2-33-6-65-15-97-11-41-28-82-50-119l-2-3s1-1 3-1c4-1 12-3 17-4 49-13 87-30 109-50 2-2 5-6 7-8 6-7 11-14 14-22 4-13 3-25-3-38-9-19-32-38-65-53-57-26-144-41-239-44-18-1-38-1-56 0-30 1-60 2-88 6l-5 1h-1c-31-6-66-10-98-9v0zM557-170c5 1 10 1 15 2 22 5 41 19 55 37 10 14 17 30 19 47 0 4 1 6 1 11s0 8-1 13c-5 39-32 71-70 82-19 5-39 5-58-1-20-6-37-18-49-35-8-11-13-25-16-38-4-17-2-34 3-51 4-13 10-24 19-34l8-8c10-9 22-16 35-20 7-2 15-4 23-5h3 13v0z" glyph-name="bunny" horiz-adv-x="1159" unicode="&#xf35f;"/><glyph d="M384 320c0 71-57 128-128 128s-128-57-128-128 57-128 128-128 128 57 128 128zM1408 320c0 71-57 128-128 128s-128-57-128-128 57-128 128-128 128 57 128 128zM1362 716l-72 384c-6 30-32 52-63 52h-918c-31 0-57-22-63-52l-72-384c-7-40 23-76 63-76h1062c40 0 70 36 63 76zM1136 1328c0 27-21 48-48 48h-640c-26 0-48-21-48-48s22-48 48-48h640c27 0 48 21 48 48zM1536 603v-603h-128v-128c0-71-57-128-128-128s-128 57-128 128v128h-768v-128c0-71-57-128-128-128s-128 57-128 128v128h-128v603c0 82 7 143 25 223l103 454c19 160 299 256 640 256s621-96 640-256l105-454c18-80 23-141 23-223z" glyph-name="bus" unicode="&#xf207;"/><glyph d="M1108 1119l-1 1-3 1c1-1 3-2 4-2v0 0zM1126 991h-1zM1109 1119h-1v0h1v0 0zM1108 1119h1v0h-1v0zM1125 991l2 2h1l1 1c-1-1-3-2-4-3v0 0zM1112 1116v0 0c-1 0-2 2-3 3l1-1zM602-126l-2-2-2-1c1 1 2 2 4 3zM898-68v-3-2c0 7 0 7 0 5zM868-126c-1-1-2-1-3-2l-1-1c1 1 2 2 4 3zM394-140v0l-1 1c-1 0-2 0-3 1 2 0 3-1 4-2zM347-95v0 0c0 2 0 4-1 6 1-2 1-4 1-6zM662 708c57 25 107 46 169 46 36 0 68-7 99-18l-71-743c-2-28-14-54-35-73s-48-30-76-30c0 0-101-5-134-5-31 0-124 5-124 5-28 0-55 11-76 30s-34 45-36 73l-65 673c38-11 77-17 117-17 95 0 168 31 232 59zM110 995l1-1h1c-1 1-1 1-2 1v0 0zM1232 1057c12-48 6-96-28-132-21-23-51-33-81-39-8-1-14-5-19-11s-9-12-10-20l-16-156-35-340c-11-104-21-208-32-312-3-31-6-63-9-94-11-109-91-180-196-199-71-13-143-10-215-9-56 1-114 3-169 12-95 15-172 69-183 169-2 18-3 38-5 56-10 96-20 191-30 287l-35 338-17 163c-3 28 25 50 50 51 29 1 48-25 51-51 0-4 1-7 1-11l23-220 35-340c6-61 13-123 19-184 5-46 11-100 46-134 40-39 104-43 156-43 49 0 98-2 147-2 44 0 88 6 131 16 47 11 79 39 88 87 6 30 6 62 9 93s7 62 10 93c11 110 23 221 34 331 11 105 21 210 32 315l6 52c1 5 0 11-2 16s-5 10-9 14-8 6-13 8-11 3-16 2c-17-2-35-3-52-5-211-20-424-17-635 9-54 7-107 14-160 24-57 10-96 56-102 112-3 26 5 54 10 79s9 51 20 75c11 22 28 40 50 52 26 14 55 17 84 12 24-4 49-8 73-12l21-3c3 0 19-2 10-1 11-1 23-4 34-5 105-12 211-18 317-18 27 0 52 0 79 1 52 1 105 4 157 8 26 2 52 5 78 8 13 1 27 3 40 5h4l4 1v0c2 0 5 1 7 2s4 3 5 5 3 5 3 7 1 5 0 7c-7 32-14 65-21 97v0l-3 14c-2 11-4 22-8 32-13 32-51 35-80 41-20 4-39 7-59 10l-7 1c-3 0-8 2-11 2-9 1-17 2-26 3-41 4-83 7-124 8-85 3-171 0-256-9-10-1-19-3-29-4v0c-5-1-11-1-16-2-16-2-31-6-47-9v0c-2 0-4-2-5-3s-2-3-2-5 1-4 2-5 3-3 5-3c18-4 36-7 54-10l9-1h1l9-1 27-3c20-2 39-4 59-5 44-3 87-4 131-4s89 1 133 4c20 1 40 4 60 6 10 1 18 2 28 3h3c4 1 9 1 13 2 28 4 53-6 62-35 8-24-10-58-36-62-22-3-45-7-67-9-90-10-181-13-272-9-82 3-165 10-245 28-29 6-57 15-84 27-21 9-40 23-52 43-16 28-9 63 13 86 18 18 43 28 67 37 65 24 137 31 205 37 92 8 184 10 276 5 77-4 155-11 230-31 16-4 32-8 47-14 30-12 60-29 74-59 11-22 15-50 19-74 5-28 9-57 14-85 3-15 6-31 17-42s28-13 43-18c46-16 65-58 74-103zM101 1023v-5c0 3-1 5 0 5zM104 1001l2-2-2 2v0 0zM107 997v0 0c2-3 1-2 0 0zM113 992v0h1-1v0 0zM1122 999v0 0c8 7 12 18 13 28 2 24 0 51-12 72-18 31-51 21-81 16-33-6-67-11-101-16-184-25-372-27-557-10-43 4-87 8-130 15-36 5-78 21-114 17-23-3-31-29-35-48-4-21-12-57 4-75 9-9 23-11 36-13 129-18 258-33 388-37 182-6 366 7 546 34 16 2 32 7 43 17z" glyph-name="buymeacoffee" horiz-adv-x="1238" unicode="&#xf33d;"/><glyph d="M915 450h-294l147 551zM1001 128h311l-324 1024h-440l-324-1024h311l383 314zM1536 1120v-960c0-158-130-288-288-288h-960c-158 0-288 130-288 288v960c0 158 130 288 288 288h960c158 0 288-130 288-288z" glyph-name="buysellads" unicode="&#xf20d;"/><glyph d="M996 819c0 0-23 211-232 217s-317-157-317-392 119-423 323-423 226 235 226 235l391-24s22-211-141-373-364-188-504-187-334-2-522 190-220 379-220 563 36 427 259 611c152 125 306 172 460 172 643 0 685-593 685-593l-408 4v0z" glyph-name="c" horiz-adv-x="1404" unicode="&#xf31c;"/><glyph d="M384 0c0 71-57 128-128 128s-128-57-128-128 57-128 128-128 128 57 128 128zM768 0c0 71-57 128-128 128s-128-57-128-128 57-128 128-128 128 57 128 128zM384 384c0 71-57 128-128 128s-128-57-128-128 57-128 128-128 128 57 128 128zM1152 0c0 71-57 128-128 128s-128-57-128-128 57-128 128-128 128 57 128 128zM768 384c0 71-57 128-128 128s-128-57-128-128 57-128 128-128 128 57 128 128zM384 768c0 71-57 128-128 128s-128-57-128-128 57-128 128-128 128 57 128 128zM1152 384c0 71-57 128-128 128s-128-57-128-128 57-128 128-128 128 57 128 128zM768 768c0 71-57 128-128 128s-128-57-128-128 57-128 128-128 128 57 128 128zM1536 0v384c0 70-58 128-128 128s-128-58-128-128v-384c0-70 58-128 128-128s128 58 128 128zM1152 768c0 71-57 128-128 128s-128-57-128-128 57-128 128-128 128 57 128 128zM1536 1088v256c0 35-29 64-64 64h-1280c-35 0-64-29-64-64v-256c0-35 29-64 64-64h1280c35 0 64 29 64 64zM1536 768c0 71-57 128-128 128s-128-57-128-128 57-128 128-128 128 57 128 128zM1664 1408v-1536c0-70-58-128-128-128h-1408c-70 0-128 58-128 128v1536c0 70 58 128 128 128h1408c70 0 128-58 128-128z" glyph-name="calculator" horiz-adv-x="1664" unicode="&#xf1ec;"/><glyph d="M128-128h288v288h-288v-288zM480-128h320v288h-320v-288zM128 224h288v320h-288v-320zM480 224h320v320h-320v-320zM128 608h288v288h-288v-288zM864-128h320v288h-320v-288zM480 608h320v288h-320v-288zM1248-128h288v288h-288v-288zM864 224h320v320h-320v-320zM512 1088v288c0 17-15 32-32 32h-64c-17 0-32-15-32-32v-288c0-17 15-32 32-32h64c17 0 32 15 32 32zM1248 224h288v320h-288v-320zM864 608h320v288h-320v-288zM1248 608h288v288h-288v-288zM1280 1088v288c0 17-15 32-32 32h-64c-17 0-32-15-32-32v-288c0-17 15-32 32-32h64c17 0 32 15 32 32zM1664 1152v-1280c0-70-58-128-128-128h-1408c-70 0-128 58-128 128v1280c0 70 58 128 128 128h128v96c0 88 72 160 160 160h64c88 0 160-72 160-160v-96h384v96c0 88 72 160 160 160h64c88 0 160-72 160-160v-96h128c70 0 128-58 128-128z" glyph-name="calendar" horiz-adv-x="1664" unicode="&#xf073;"/><glyph d="M1303 572l-512-512c-13-12-33-12-46 0l-288 288c-12 13-12 33 0 45l46 46c12 12 32 12 45 0l220-220 444 444c13 12 33 12 45 0l46-46c12-12 12-32 0-45zM128-128h1408v1024h-1408v-1024zM512 1088v288c0 18-14 32-32 32h-64c-18 0-32-14-32-32v-288c0-18 14-32 32-32h64c18 0 32 14 32 32zM1280 1088v288c0 18-14 32-32 32h-64c-18 0-32-14-32-32v-288c0-18 14-32 32-32h64c18 0 32 14 32 32zM1664 1152v-1280c0-70-58-128-128-128h-1408c-70 0-128 58-128 128v1280c0 70 58 128 128 128h128v96c0 88 72 160 160 160h64c88 0 160-72 160-160v-96h384v96c0 88 72 160 160 160h64c88 0 160-72 160-160v-96h128c70 0 128-58 128-128z" glyph-name="calendar-check-o" horiz-adv-x="1664" unicode="&#xf274;"/><glyph d="M1152 416v-64c0-18-14-32-32-32h-576c-18 0-32 14-32 32v64c0 18 14 32 32 32h576c18 0 32-14 32-32zM128-128h1408v1024h-1408v-1024zM512 1088v288c0 18-14 32-32 32h-64c-18 0-32-14-32-32v-288c0-18 14-32 32-32h64c18 0 32 14 32 32zM1280 1088v288c0 18-14 32-32 32h-64c-18 0-32-14-32-32v-288c0-18 14-32 32-32h64c18 0 32 14 32 32zM1664 1152v-1280c0-70-58-128-128-128h-1408c-70 0-128 58-128 128v1280c0 70 58 128 128 128h128v96c0 88 72 160 160 160h64c88 0 160-72 160-160v-96h384v96c0 88 72 160 160 160h64c88 0 160-72 160-160v-96h128c70 0 128-58 128-128z" glyph-name="calendar-minus-o" horiz-adv-x="1664" unicode="&#xf272;"/><glyph d="M128-128h1408v1024h-1408v-1024zM512 1088v288c0 18-14 32-32 32h-64c-18 0-32-14-32-32v-288c0-18 14-32 32-32h64c18 0 32 14 32 32zM1280 1088v288c0 18-14 32-32 32h-64c-18 0-32-14-32-32v-288c0-18 14-32 32-32h64c18 0 32 14 32 32zM1664 1152v-1280c0-70-58-128-128-128h-1408c-70 0-128 58-128 128v1280c0 70 58 128 128 128h128v96c0 88 72 160 160 160h64c88 0 160-72 160-160v-96h384v96c0 88 72 160 160 160h64c88 0 160-72 160-160v-96h128c70 0 128-58 128-128z" glyph-name="calendar-o" horiz-adv-x="1664" unicode="&#xf133;"/><glyph d="M1536 1280c70 0 128-58 128-128v-1280c0-70-58-128-128-128h-1408c-70 0-128 58-128 128v1280c0 70 58 128 128 128h128v96c0 88 72 160 160 160h64c88 0 160-72 160-160v-96h384v96c0 88 72 160 160 160h64c88 0 160-72 160-160v-96h128zM1152 1376v-288c0-18 14-32 32-32h64c18 0 32 14 32 32v288c0 18-14 32-32 32h-64c-18 0-32-14-32-32zM384 1376v-288c0-18 14-32 32-32h64c18 0 32 14 32 32v288c0 18-14 32-32 32h-64c-18 0-32-14-32-32zM1536-128v1024h-1408v-1024h1408zM896 448h224c18 0 32-14 32-32v-64c0-18-14-32-32-32h-224v-224c0-18-14-32-32-32h-64c-18 0-32 14-32 32v224h-224c-18 0-32 14-32 32v64c0 18 14 32 32 32h224v224c0 18 14 32 32 32h64c18 0 32-14 32-32v-224z" glyph-name="calendar-plus-o" horiz-adv-x="1664" unicode="&#xf271;"/><glyph d="M1111 151l-46-46c-12-12-32-12-45 0l-188 189-188-189c-13-12-33-12-45 0l-46 46c-12 12-12 32 0 45l189 188-189 188c-12 13-12 33 0 45l46 46c12 12 32 12 45 0l188-188 188 188c13 12 33 12 45 0l46-46c12-12 12-32 0-45l-188-188 188-188c12-13 12-33 0-45zM128-128h1408v1024h-1408v-1024zM512 1088v288c0 18-14 32-32 32h-64c-18 0-32-14-32-32v-288c0-18 14-32 32-32h64c18 0 32 14 32 32zM1280 1088v288c0 18-14 32-32 32h-64c-18 0-32-14-32-32v-288c0-18 14-32 32-32h64c18 0 32 14 32 32zM1664 1152v-1280c0-70-58-128-128-128h-1408c-70 0-128 58-128 128v1280c0 70 58 128 128 128h128v96c0 88 72 160 160 160h64c88 0 160-72 160-160v-96h384v96c0 88 72 160 160 160h64c88 0 160-72 160-160v-96h128c70 0 128-58 128-128z" glyph-name="calendar-times-o" horiz-adv-x="1664" unicode="&#xf273;"/><glyph d="M960 864c159 0 288-129 288-288s-129-288-288-288-288 129-288 288 129 288 288 288zM1664 1280c141 0 256-115 256-256v-896c0-141-115-256-256-256h-1408c-141 0-256 115-256 256v896c0 141 115 256 256 256h224l51 136c25 66 103 120 173 120h512c70 0 148-54 173-120l51-136h224zM960 128c247 0 448 201 448 448s-201 448-448 448-448-201-448-448 201-448 448-448z" glyph-name="camera" horiz-adv-x="1920" unicode="&#xf030;"/><glyph d="M928 704c0 18-14 32-32 32-88 0-160-72-160-160 0-18 14-32 32-32s32 14 32 32c0 53 43 96 96 96 18 0 32 14 32 32zM1152 574c0-141-115-256-256-256s-256 115-256 256 115 256 256 256 256-115 256-256zM128 0h1536v128h-1536v-128zM1280 574c0 212-172 384-384 384s-384-172-384-384 172-384 384-384 384 172 384 384zM256 1216h384v128h-384v-128zM128 1024h1536v256h-828l-64-128h-644v-128zM1792 1280v-1280c0-71-57-128-128-128h-1536c-71 0-128 57-128 128v1280c0 71 57 128 128 128h1536c71 0 128-57 128-128z" glyph-name="camera-retro" horiz-adv-x="1792" unicode="&#xf083;"/><glyph d="M480 448c0 88-72 160-160 160s-160-72-160-160 72-160 160-160 160 72 160 160zM516 768h1016l-89 357c-3 11-23 27-35 27h-768c-12 0-32-16-35-27zM1888 448c0 88-72 160-160 160s-160-72-160-160 72-160 160-160 160 72 160 160zM2048 544v-384c0-18-14-32-32-32h-96v-128c0-106-86-192-192-192s-192 86-192 192v128h-1024v-128c0-106-86-192-192-192s-192 86-192 192v128h-96c-18 0-32 14-32 32v384c0 124 100 224 224 224h28l105 419c31 126 153 221 283 221h768c130 0 252-95 283-221l105-419h28c124 0 224-100 224-224z" glyph-name="car" horiz-adv-x="2048" unicode="&#xf1b9;"/><glyph d="M1024 832c0-17-7-33-19-45l-448-448c-12-12-28-19-45-19s-33 7-45 19l-448 448c-12 12-19 28-19 45 0 35 29 64 64 64h896c35 0 64-29 64-64z" glyph-name="caret-down" horiz-adv-x="1024" unicode="&#xf0d7;"/><glyph d="M576 1088v-896c0-35-29-64-64-64-17 0-33 7-45 19l-448 448c-12 12-19 28-19 45s7 33 19 45l448 448c12 12 28 19 45 19 35 0 64-29 64-64z" glyph-name="caret-left" horiz-adv-x="576" unicode="&#xf0d9;"/><glyph d="M576 640c0-17-7-33-19-45l-448-448c-12-12-28-19-45-19-35 0-64 29-64 64v896c0 35 29 64 64 64 17 0 33-7 45-19l448-448c12-12 19-28 19-45z" glyph-name="caret-right" horiz-adv-x="576" unicode="&#xf0da;"/><glyph d="M1145 861c11-21 9-47-5-66l-320-448c-12-17-31-27-52-27s-40 10-52 27l-320 448c-14 19-16 45-5 66 11 22 33 35 57 35h640c24 0 46-13 57-35zM1280 160v960c0 17-15 32-32 32h-960c-17 0-32-15-32-32v-960c0-17 15-32 32-32h960c17 0 32 15 32 32zM1536 1120v-960c0-159-129-288-288-288h-960c-159 0-288 129-288 288v960c0 159 129 288 288 288h960c159 0 288-129 288-288z" glyph-name="caret-square-o-down" unicode="&#xf150;"/><glyph d="M1024 960v-640c0-35-29-64-64-64-13 0-26 4-37 12l-448 320c-17 12-27 31-27 52 0 20 10 40 27 52l448 320c11 8 24 12 37 12 35 0 64-29 64-64zM1280 160v960c0 17-15 32-32 32h-960c-17 0-32-15-32-32v-960c0-17 15-32 32-32h960c17 0 32 15 32 32zM1536 1120v-960c0-159-129-288-288-288h-960c-159 0-288 129-288 288v960c0 159 129 288 288 288h960c159 0 288-129 288-288z" glyph-name="caret-square-o-left" unicode="&#xf191;"/><glyph d="M1088 640c0-21-10-40-27-52l-448-320c-19-14-45-16-66-5-22 11-35 33-35 57v640c0 24 13 46 35 57 21 11 47 9 66-5l448-320c17-12 27-31 27-52zM1280 160v960c0 18-14 32-32 32h-960c-18 0-32-14-32-32v-960c0-18 14-32 32-32h960c18 0 32 14 32 32zM1536 1120v-960c0-159-129-288-288-288h-960c-159 0-288 129-288 288v960c0 159 129 288 288 288h960c159 0 288-129 288-288z" glyph-name="caret-square-o-right" unicode="&#xf152;"/><glyph d="M1145 419c-11-22-33-35-57-35h-640c-24 0-46 13-57 35-11 21-9 47 5 66l320 448c12 17 31 27 52 27s40-10 52-27l320-448c14-19 16-45 5-66zM1280 160v960c0 17-15 32-32 32h-960c-17 0-32-15-32-32v-960c0-17 15-32 32-32h960c17 0 32 15 32 32zM1536 1120v-960c0-159-129-288-288-288h-960c-159 0-288 129-288 288v960c0 159 129 288 288 288h960c159 0 288-129 288-288z" glyph-name="caret-square-o-up" unicode="&#xf151;"/><glyph d="M1024 320c0-35-29-64-64-64h-896c-35 0-64 29-64 64 0 17 7 33 19 45l448 448c12 12 28 19 45 19s33-7 45-19l448-448c12-12 19-28 19-45z" glyph-name="caret-up" horiz-adv-x="1024" unicode="&#xf0d8;"/><glyph d="M1280 832c0 35-29 64-64 64-17 0-33-7-45-19l-147-146v293c0 35-29 64-64 64s-64-29-64-64v-293l-147 146c-12 12-28 19-45 19-35 0-64-29-64-64 0-17 7-33 19-45l256-256c12-12 28-19 45-19s33 7 45 19l256 256c12 12 19 28 19 45zM640 0c0-71-57-128-128-128s-128 57-128 128 57 128 128 128 128-57 128-128zM1536 0c0-71-57-128-128-128s-128 57-128 128 57 128 128 128 128-57 128-128zM1664 1088v-512c0-32-24-60-57-64l-1044-122c4-22 13-47 13-70s-14-44-24-64h920c35 0 64-29 64-64s-29-64-64-64h-1024c-35 0-64 29-64 64 0 31 47 108 61 137l-177 823h-204c-35 0-64 29-64 64s29 64 64 64h256c68 0 69-80 79-128h1201c35 0 64-29 64-64z" glyph-name="cart-arrow-down" horiz-adv-x="1664" unicode="&#xf218;"/><glyph d="M1216 832c0 35-29 64-64 64h-128v128c0 35-29 64-64 64s-64-29-64-64v-128h-128c-35 0-64-29-64-64s29-64 64-64h128v-128c0-35 29-64 64-64s64 29 64 64v128h128c35 0 64 29 64 64zM640 0c0-71-57-128-128-128s-128 57-128 128 57 128 128 128 128-57 128-128zM1536 0c0-71-57-128-128-128s-128 57-128 128 57 128 128 128 128-57 128-128zM1664 1088v-512c0-32-24-60-57-64l-1044-122c4-22 13-47 13-70s-14-44-24-64h920c35 0 64-29 64-64s-29-64-64-64h-1024c-35 0-64 29-64 64 0 31 47 108 61 137l-177 823h-204c-35 0-64 29-64 64s29 64 64 64h256c68 0 69-80 79-128h1201c35 0 64-29 64-64z" glyph-name="cart-plus" horiz-adv-x="1664" unicode="&#xf217;"/><glyph d="M785 528h207c-19-211-140-339-313-339-216 0-347 166-347 432 0 264 144 429 326 429 200 0 312-124 329-334h-203c-7 85-49 134-117 134-75 0-120-80-120-238 0-115 20-223 129-223 69 0 101 60 109 139zM1497 528h206c-19-211-139-339-312-339-216 0-347 166-347 432 0 264 144 429 326 429 200 0 312-124 329-334h-204c-6 85-49 134-116 134-75 0-120-80-120-238 0-115 19-223 128-223 69 0 102 60 110 139zM1856 647c0 268-14 384-76 468-13 17-34 28-51 40-63 46-356 63-697 63s-648-17-710-63c-18-13-40-23-53-40-62-83-75-200-75-468 0-269 14-385 75-468 14-19 35-27 53-41 62-46 369-65 710-65s634 18 697 65c17 13 39 21 51 41 63 82 76 199 76 468zM2048 1408v-1536h-2048v1536h2048z" glyph-name="cc" horiz-adv-x="2048" unicode="&#xf20a;"/><glyph d="M119 854h89l-45 108zM740 328l74 79-70 79h-163v-49h142v-55h-142v-54h159zM898 406l99-110v217zM1186 453c0 24-18 33-40 33h-84v-69h83c23 0 41 11 41 36zM1475 457c0 25-22 29-42 29h-82v-61h81c22 0 43 5 43 32zM1197 923c0 25-22 29-42 29h-82v-60h81c22 0 43 5 43 31zM1656 854h89l-44 108zM699 1009v-271h-66v212l-94-212h-57l-94 212v-212h-132l-25 60h-135l-25-60h-70l116 271h96l110-257v257h106l85-184 77 184h108zM1255 453c0-109-119-91-193-91v-91h-126l-80 90-83-90h-256v271h260l80-89 82 89h207c61 0 109-21 109-89zM964 794v-56h-217v271h217v-57h-152v-49h148v-55h-148v-54h152zM2304 235v-229c0-73-59-134-132-134h-2040c-73 0-132 61-132 134v678h111l25 61h55l25-61h218v46l19-46h113l20 47v-47h541v99l10 1c9 0 10-7 10-14v-86h279v23c65-34 154-23 222-23l25 61h56l25-61h227v58l34-58h182v378h-180v-44l-25 44h-185v-44l-23 44h-249c-37 0-76-4-109-22v22h-172v-22c-20 18-47 22-73 22h-628l-43-97-43 97h-198v-44l-22 44h-169l-78-179v391c0 73 59 134 132 134h2040c73 0 132-61 132-134v-678h-120c-28 0-58-5-81-22v22h-177c-25 0-59-4-78-22v22h-316v-22c-24 17-59 22-87 22h-209v-22c-21 20-64 22-91 22h-234l-54-58-50 58h-349v-378h343l55 59 52-59h211v89h21c30 0 61 1 90 13v-102h174v99h8c10 0 12-1 12-12v-87h529c29 0 65 6 88 24v-24h168c32 0 66 3 95 17zM1546 469c0-30-16-60-46-72 36-13 43-37 43-72v-54h-65v45c0 46-15 54-58 54h-69v-99h-65v271h154c51 0 106-9 106-73zM1269 936c0-31-17-61-46-73 37-13 43-36 43-72v-53h-65c-1 58 14 98-58 98h-70v-98h-64v271l153-1c52 0 107-8 107-72zM1798 327v-56h-216v271h216v-56h-151v-49h148v-55h-148v-54zM1372 1009v-271h-66v271h66zM2065 357c0-64-44-86-102-86h-126v58h126c16 0 34 4 34 25 0 58-167-22-167 107 0 55 42 81 92 81h130v-57h-119c-17 0-36-3-36-25 0-59 168 27 168-103zM2304 407v-101c-19-28-56-35-88-35h-125v58h125c16 0 33 5 33 25 0 57-167-22-167 107 0 55 43 81 93 81h129v-57h-118c-18 0-36-3-36-25 0-48 113 1 154-53zM2139 1008v-270h-92l-122 203v-203h-132l-26 60h-134l-25-60h-75c-89 0-129 46-129 133 0 91 41 138 133 138h63v-59c-68 1-130 16-130-77 0-46 11-78 63-78h29l92 213h97l109-256v256h99l114-188v188h66z" glyph-name="cc-amex" horiz-adv-x="2304" unicode="&#xf1f3;"/><glyph d="M894 1536c252 0 464-86 637-259 174-174 261-386 261-637 0-252-85-462-256-629-181-178-396-267-642-267-242 0-452 88-630 264-176 176-264 387-264 632s88 458 264 637c173 173 383 259 630 259zM898 1374c-204 0-376-71-517-214-146-149-219-323-219-520 0-198 72-370 217-515s318-218 519-218c199 0 373 73 521 219 141 135 211 307 211 514 0 204-71 377-214 520s-315 214-518 214zM1138 862v-366h-103v-435h-278v435h-103v366c0 16 6 30 17 41s25 17 41 17h368c15 0 28-6 40-17s18-25 18-41zM771 1093c0 84 42 126 125 126s125-42 125-126c0-83-42-125-125-125s-125 42-125 125z" glyph-name="cc-by" horiz-adv-x="1792" unicode="&#xf33e;"/><glyph d="M894 1536c251 0 464-87 640-262 84-84 148-181 192-289s66-223 66-345c0-123-22-238-65-345s-107-202-191-284c-87-86-187-152-298-198s-226-69-344-69-232 23-340 68-205 111-291 197-151 182-196 290-67 222-67 341c0 118 23 233 68 342s112 207 198 293c171 174 379 261 628 261v0zM898 1374c-205 0-377-71-517-214-70-71-125-152-163-241s-56-182-56-279c0-96 18-189 56-278s93-168 163-238 149-123 238-160 182-55 279-55c96 0 189 19 279 56s171 91 244 161c140 137 209 308 209 514 0 99-18 193-54 282s-89 167-158 236c-144 144-317 216-520 216zM886 789l-120-63c-13 27-28 45-47 56s-36 16-52 16c-80 0-120-52-120-158 0-48 11-86 31-115s50-43 89-43c52 0 90 25 111 76l110-56c-23-44-56-78-98-103s-87-37-137-37c-80 0-145 24-194 73s-73 118-73 205c0 85 24 153 74 203s112 75 188 75c111 0 190-43 238-129v0zM1403 789l-118-63c-13 27-28 45-47 56s-37 16-54 16c-80 0-120-52-120-158 0-48 10-86 30-115s50-43 90-43c52 0 89 25 110 76l112-56c-24-44-57-78-99-103s-87-37-136-37c-81 0-146 24-194 73-49 49-73 118-73 205 0 85 24 153 74 203s112 75 188 75c111 0 190-43 237-129z" glyph-name="cc-cc" horiz-adv-x="1792" unicode="&#xf33f;"/><glyph d="M858 295v693c-139-54-238-189-238-347s99-293 238-346zM1362 641c0 158-99 293-238 347v-694c139 54 238 189 238 347zM1577 641c0-323-262-586-586-586-323 0-586 263-586 586 0 324 263 586 586 586 324 0 586-262 586-586zM1960 634c0 382-319 646-669 646h-301c-354 0-646-264-646-646 0-349 292-634 646-634h301c350 0 669 285 669 634zM2304 1280v-1280c0-70-58-128-128-128h-2048c-70 0-128 58-128 128v1280c0 70 58 128 128 128h2048c70 0 128-58 128-128z" glyph-name="cc-diners-club" horiz-adv-x="2304" unicode="&#xf24c;"/><glyph d="M313 759c0-32-13-63-36-84-20-18-47-26-89-26h-17v220h17c42 0 68-7 89-27 23-20 36-51 36-83zM2089 824c0-34-22-52-64-52h-19v101h20c41 0 63-17 63-49zM380 759c0 98-73 167-179 167h-95v-333h95c50 0 87 11 119 38 38 32 60 79 60 128zM410 593h65v333h-65v-333zM730 694c0 53-22 77-96 104-39 14-50 24-50 42 0 21 20 37 48 37 20 0 36-8 53-27l34 44c-28 25-62 37-98 37-59 0-104-41-104-95 0-46 21-70 82-92 25-9 38-14 45-19 13-8 19-20 19-34 0-27-21-47-50-47-31 0-56 15-71 44l-42-40c30-44 66-64 115-64 68 0 115 45 115 110zM1008 604v77c-26-26-49-37-78-37-66 0-112 48-112 115 0 64 48 115 109 115 31 0 54-11 81-38v77c-28 14-52 20-80 20-98 0-177-77-177-174 0-98 77-174 176-174 28 0 52 5 81 19zM2240 0v527c-160-100-723-420-1633-591h1569c35 0 64 29 64 64zM1389 757c0 100-81 181-181 181s-181-81-181-181 81-181 181-181 181 81 181 181zM1541 584l144 342h-71l-90-224-89 224h-71l142-342h35zM1714 593h184v56h-119v90h115v56h-115v74h119v57h-184v-333zM2105 593h80l-105 140c49 10 76 43 76 94 0 63-43 99-118 99h-97v-333h65v133h9zM2304 1274v-1268c0-74-59-134-132-134h-2040c-73 0-132 60-132 134v1268c0 74 59 134 132 134h2040c73 0 132-60 132-134z" glyph-name="cc-discover" horiz-adv-x="2304" unicode="&#xf1f2;"/><glyph d="M1951 538c0-36-24-62-54-68-4-1-13-2-18-2h-153v140h153c5 0 14-1 18-2 30-6 54-33 54-68zM1933 751c0-35-24-58-53-63-3-1-10-1-15-1h-139v129h139c5 0 12-1 15-1 29-5 53-29 53-64zM728 587v308h-228v-308c0-75-51-131-143-131-78 0-155 23-229 59v-112c120-33 272-33 272-33 254 0 328 97 328 217zM1442 403v113c-52-27-118-53-200-59-144-11-230 59-230 183s86 194 230 183c82-6 147-31 200-58v112c-107 27-208 31-208 31-352 16-452-123-452-268s100-284 452-268c0 0 101 4 208 31zM2176 518c0 74-66 122-152 128v3c78 11 121 62 121 121 0 76-63 120-148 124-6 0-17 1-26 1h-455v-510h491c97 0 169 52 169 133zM2304 1280v-1280c0-70-58-128-128-128h-2048c-70 0-128 58-128 128v1280c0 70 58 128 128 128h2048c70 0 128-58 128-128z" glyph-name="cc-jcb" horiz-adv-x="2304" unicode="&#xf24b;"/><glyph d="M1119 1195c-83 55-181 85-281 85-281 0-509-228-509-508 0-281 228-509 509-509 100 0 198 30 281 85-268 218-266 629 0 847zM1152 1171c-258-203-259-597 0-799 259 202 258 596 0 799zM1185 1195c265-218 269-630 0-847 83-55 182-85 281-85 281 0 509 228 509 509 0 280-228 508-509 508-100 0-198-30-281-85zM1926 473h7v3h-17v-3h7v-17h3v17zM1955 456h4v20h-5l-6-13-6 13h-5v-20h3v15l6-13h4l5 13v-15zM1947 16v-2h-5v3h5v-1zM1947 7h3l-4 5c2 0 2 1 3 1 1 1 1 2 1 3s0 2-1 3c-1 0-2 1-4 1h-6v-13h3v5h1zM685 75c0 24 15 43 41 43 24 0 40-19 40-43 0-25-16-43-40-43-26 0-41 19-41 43zM1158 119c19 0 32-11 35-32h-70c3 19 15 32 35 32zM1514 75c0 24 15 43 40 43s41-19 41-43c0-25-16-43-41-43s-40 19-40 43zM1786 75c0 24 16 43 41 43 24 0 41-19 41-43 0-25-17-43-41-43-25 0-41 19-41 43zM1944 3c-1 0-2 0-4 1-1 0-2 1-3 2s-2 2-2 3c-1 2-1 3-1 4 0 2 0 3 1 4 0 2 1 3 2 4s2 1 3 2c2 1 3 1 4 1 2 0 3 0 4-1 2-1 3-1 4-2s1-2 2-4c0-1 1-2 1-4 0-1-1-2-1-4-1-1-1-2-2-3s-2-2-4-2c-1-1-2-1-4-1zM599 7h30v85c0 32-21 53-54 54-17 0-35-5-47-24-9 15-24 24-45 24-14 0-28-5-39-20v16h-30v-135h30v75c0 24 13 36 33 36s30-13 30-36v-75h29v75c0 24 14 36 33 36 20 0 30-13 30-36v-75zM765 7h29v135h-29v-16c-10 12-24 20-43 20-38 0-67-30-67-71s29-71 67-71c19 0 33 7 43 20v-17zM943 48c0 24-18 36-47 40l-14 2c-13 2-23 5-23 14s9 15 25 15c18 0 34-6 43-11l12 24c-14 9-33 14-55 14-34 0-56-17-56-44 0-22 16-35 47-39l13-2c17-3 24-7 24-14 0-11-11-17-31-17s-35 7-45 14l-13-23c16-11 36-17 58-17 39 0 62 18 62 44zM1073 14l-8 25c-9-5-18-7-26-7-15 0-19 9-19 22v61h48v27h-48v41h-30v-41h-28v-27h28v-61c0-31 12-50 47-50 12 0 27 4 36 10zM1159 146c-39 0-67-29-67-71 0-43 29-71 69-71 20 0 39 5 55 19l-14 22c-11-9-26-15-39-15-19 0-36 9-41 33h101v12c0 42-26 71-64 71zM1318 146c-17 0-28-8-35-20v16h-30v-135h30v76c0 22 9 35 29 35 6 0 12-1 18-4l9 28c-7 3-15 4-21 4zM1348 75c0-41 28-71 72-71 20 0 34 4 48 16l-14 24c-11-8-22-13-35-12-24 0-41 17-41 43s17 43 41 43c13 0 24-4 35-12l14 24c-14 11-28 16-48 16-44 0-72-30-72-71zM1593 7h30v135h-30v-16c-9 12-23 20-42 20-38 0-68-30-68-71s30-71 68-71c19 0 33 7 42 20v-17zM1726 146c-17 0-28-8-35-20v16h-29v-135h29v76c0 22 10 35 29 35 6 0 12-1 18-4l9 28c-6 3-15 4-21 4zM1866 7h29v190h-29v-71c-9 12-23 20-43 20-37 0-67-30-67-71s30-71 67-71c20 0 34 7 43 20v-17zM1944 27c-1 0-3-1-5-1-2-1-3-2-4-3-2-1-3-3-3-4-1-2-1-4-1-6 0-1 0-3 1-5 0-1 1-3 3-4 1-1 2-2 4-3s4-1 5-1c2 0 4 0 6 1 1 1 3 2 4 3s2 3 3 4c1 2 1 4 1 5 0 2 0 4-1 6-1 1-2 3-3 4s-3 2-4 3c-2 0-4 1-6 1zM2304 1280v-1280c0-70-58-128-128-128h-2048c-70 0-128 58-128 128v1280c0 70 58 128 128 128h2048c70 0 128-58 128-128z" glyph-name="cc-mastercard" horiz-adv-x="2304" unicode="&#xf1f1;"/><glyph d="M894 1536c252 0 464-86 637-259 174-173 261-385 261-637s-85-462-256-629c-181-178-396-267-642-267-243 0-453 89-630 266-176 176-264 386-264 630 0 245 88 458 264 637 173 173 383 259 630 259zM202 882c-27-74-40-155-40-242 0-198 72-370 217-515 146-144 320-216 519-216 202 0 375 73 521 219 52 50 93 103 123 157l-337 150c-12-57-41-102-86-138s-99-57-161-62v-137h-104v137c-99 1-190 37-272 107l124 125c59-54 125-81 200-81 31 0 57 6 79 20s33 37 33 69c0 22-8 41-24 55l-87 36-105 48-143 63zM898 1376c-204 0-376-72-517-216-35-35-68-75-99-120l342-154c15 47 43 85 85 113s90 44 145 47v138h104v-138c82-4 157-32 224-83l-116-120c-50 35-102 53-154 53-28 0-52-5-74-16s-33-28-33-54c0-7 3-16 8-23l113-51 79-35 144-64 459-205c15 63 22 127 22 192 0 206-71 379-214 520-142 144-314 216-518 216z" glyph-name="cc-nc" horiz-adv-x="1792" unicode="&#xf340;"/><glyph d="M1532 1276c173-173 260-385 260-636s-86-460-256-629c-181-178-394-267-641-267-244 0-454 88-630 264s-265 387-265 632 89 457 265 636c172 173 382 260 630 260 251 0 464-87 637-260zM1420 127c50 48 90 101 122 158l-463 205h-326c10-45 27-80 49-105 48-54 119-77 194-77 69 0 139 23 171 39l36-166c-51-29-138-57-234-57-147 0-282 60-366 171-40 51-70 115-84 195h-98v106h83v26c0 15 1 30 1 45h-84v106h17l-237 105c-26-75-40-154-40-238 0-199 73-370 218-515s318-217 518-217 375 73 523 219zM837 596l-2 2 3-2h-1zM1116 667l492-218c15 60 22 124 22 191 0 205-72 378-215 520-142 143-315 215-518 215s-375-72-516-215c-39-39-72-80-101-123l295-131c15 26 31 51 50 73 86 96 206 153 347 153 91 0 171-21 225-45l-42-171c-39 16-101 36-167 36-72 0-137-24-184-81-12-14-23-32-32-52l103-46h254v-106h-13z" glyph-name="cc-nc-eu" horiz-adv-x="1792" unicode="&#xf341;"/><glyph d="M1532 1276c173-173 260-385 260-636s-86-460-256-629c-181-178-394-267-641-267-244 0-454 88-630 264s-265 387-265 632 89 457 265 636c172 173 382 260 630 260 251 0 464-87 637-260zM1420 127c43 42 80 87 110 136l-293 130v-129h-232v-202h-223v202h-230v140h230v67l-20 43h-210v139h101l-459 205c-22-69-32-142-32-218 0-199 72-370 217-515s318-217 518-217 375 73 523 219zM1213 404l-197 88-11-21v-67h208zM1237 589l365-162c19 66 28 137 28 213 0 205-71 378-215 520-142 143-315 215-518 215s-375-72-516-215c-44-44-80-91-111-140l295-132-98 185h238l143-310 83-37 156 347h238l-227-420h139v-64z" glyph-name="cc-nc-jp" horiz-adv-x="1792" unicode="&#xf342;"/><glyph d="M894 1536c251 0 463-87 637-261 174-173 261-384 261-635s-85-460-256-630c-180-177-395-266-642-266-242 0-452 88-630 264-176 176-264 387-264 632 0 244 88 456 264 635 174 174 384 261 630 261zM898 1374c-204 0-376-72-517-216-146-148-219-321-219-518 0-199 72-371 217-515 145-145 318-218 519-218 199 0 373 73 521 219 141 137 211 308 211 514 0 205-71 377-214 518-142 144-314 216-518 216v0zM1235 851v-153h-651v153h651zM1235 563v-153h-651v153h651z" glyph-name="cc-nd" horiz-adv-x="1792" unicode="&#xf343;"/><glyph d="M745 630c0-49-39-86-88-86-37 0-64 21-64 60 0 49 38 88 87 88 37 0 65-23 65-62zM1530 779c0-60-36-72-88-72l-32-1 17 107c1 7 6 11 13 11h18c34 0 72-2 72-45zM1881 630c0-49-39-86-87-86-37 0-65 21-65 60 0 49 38 88 87 88 37 0 65-23 65-62zM513 801c0 84-65 112-139 112h-160c-10 0-20-8-21-19l-65-408c-1-8 5-16 13-16h76c11 0 21 8 22 19l18 110c4 29 53 19 72 19 114 0 184 68 184 183zM822 489l41 261c1 8-5 16-13 16h-76c-15 0-16-22-17-33-23 34-57 40-95 40-98 0-173-86-173-181 0-78 49-129 127-129 36 0 81 16 106 44-2-6-4-15-4-21 0-9 4-16 13-16h69c11 0 20 8 22 19zM1269 752c0 7-6 14-13 14h-77c-7 0-14-4-18-10l-106-156-44 150c-3 9-12 16-22 16h-75c-7 0-13-7-13-14 0-5 78-231 85-252-11-15-82-108-82-120 0-7 6-13 13-13h77c7 0 14 4 18 10l255 368c2 2 2 4 2 7zM1649 801c0 84-65 112-139 112h-159c-11 0-21-8-22-19l-65-408c-1-8 5-16 13-16h82c8 0 14 6 16 13l18 116c4 29 53 19 72 19 114 0 184 68 184 183zM1958 489l41 261c1 8-5 16-13 16h-76c-15 0-16-22-17-33-22 34-56 40-95 40-98 0-173-86-173-181 0-78 49-129 127-129 37 0 82 16 106 44-1-6-4-15-4-21 0-9 4-16 13-16h69c11 0 20 8 22 19zM2176 898v1c0 8-6 14-13 14h-74c-6 0-12-5-13-11l-65-416-1-2c0-7 6-14 14-14h66c10 0 20 8 21 19zM392 764c-8-51-42-57-86-57l-33-1 17 107c1 7 7 11 13 11h19c45 0 79-6 70-60zM2304 1280v-1280c0-70-58-128-128-128h-2048c-70 0-128 58-128 128v1280c0 70 58 128 128 128h2048c70 0 128-58 128-128z" glyph-name="cc-paypal" horiz-adv-x="2304" unicode="&#xf1f4;"/><glyph d="M896 1536c495 0 896-401 896-896s-401-896-896-896-896 401-896 896 401 896 896 896zM896-88c275 0 514 154 638 379h-2l-785 349c1-116 58-259 195-259 12 0 68 0 119 48l12 12 130-159c-11-9-21-18-34-27-67-47-153-79-252-79-168 0-435 100-435 458v0c0 33 5 87 12 119l-285 127c-26-75-41-156-41-240 0-401 327-728 728-728zM1598 454c1-1 0-1 1-2 16 60 25 123 25 188 0 401-327 728-728 728-254 0-479-131-609-329l271-121c71 112 193 186 364 186 73 0 184-15 282-99l-146-150c-8 8-17 15-27 23-25 17-58 30-98 30-70 0-116-40-145-93z" glyph-name="cc-pd" horiz-adv-x="1792" unicode="&#xf344;"/><glyph d="M894 1536c251 0 463-87 637-261 174-173 261-384 261-635s-85-460-256-630c-180-177-395-266-642-266-242 0-452 88-630 264-176 176-264 387-264 632 0 244 88 456 264 635 174 174 384 261 630 261zM898 1374c-204 0-376-72-517-216-146-148-219-321-219-518 0-200 72-371 217-515 145-145 318-218 519-218 199 0 373 73 521 219 141 137 211 308 211 514 0 205-71 377-214 518-142 144-314 216-518 216zM1482 624l17-8v-253l-16-8-217-93-10-3-11 3-469 194-16 6-232-96-229 100v230l215 90-2 1v253l243 107 549-227v-222zM1227 330v158h-1v6l-412 168v-163l412-169v1zM1254 538l144 59-132 56-141-59zM1443 400v155l-160-67v-157z" glyph-name="cc-remix" horiz-adv-x="1792" unicode="&#xf345;"/><glyph d="M894 1536c251 0 463-87 637-261 174-173 261-384 261-635s-85-460-256-630c-180-177-395-266-642-266-242 0-452 88-630 264-176 176-264 387-264 632 0 244 88 456 264 635 174 174 384 261 630 261zM898 1374c-204 0-376-72-517-216-146-148-219-321-219-518 0-200 72-371 217-515 145-145 318-218 519-218 199 0 373 73 521 219 141 137 211 308 211 514 0 205-71 377-214 518-142 144-314 216-518 216zM498 766c17 110 61 196 132 256s159 90 261 90c141 0 253-45 336-136s125-207 125-349c0-138-44-252-130-343s-198-137-336-137c-101 0-188 30-262 91s-118 148-133 260h226c5-109 71-164 197-164 63 0 114 28 152 82s57 127 57 218c0 95-18 166-53 216s-86 75-152 75c-120 0-186-53-201-159h65l-177-177-178 177h71z" glyph-name="cc-sa" horiz-adv-x="1792" unicode="&#xf346;"/><glyph d="M894 1536c251 0 463-87 637-261 174-173 261-384 261-635s-85-460-256-630c-180-177-395-266-642-266-242 0-452 88-630 264-176 176-264 387-264 632 0 244 88 456 264 635 174 174 384 261 630 261zM898 1374c-204 0-376-72-517-216-146-148-219-321-219-518 0-200 72-371 217-515 145-145 318-218 519-218 199 0 373 73 521 219 141 137 211 308 211 514 0 205-71 377-214 518-142 144-314 216-518 216zM1262 896c14 0 26-4 36-14s14-22 14-36v-659c0-14-4-25-14-35s-22-14-36-14h-488c-14 0-25 4-35 14s-14 21-14 35v195h-195c-14 0-26 5-36 15s-14 21-14 35v659c0 13 4 24 13 33 8 9 19 15 32 17h493c14 0 25-5 35-15s14-21 14-35v-195h195v0zM578 480h147v366c0 13 4 24 13 33s18 15 30 17h202v146h-392v-562zM1214 798h-392v-561h392v561z" glyph-name="cc-share" horiz-adv-x="1792" unicode="&#xf347;"/><glyph d="M1597 633c0-46-7-81-21-106-12-22-31-35-52-35-15 0-29 3-41 9v224c26 27 49 30 57 30 38 0 57-42 57-122zM2035 669h-110c4 67 22 98 56 98s52-32 54-98zM476 534c0 84-51 119-134 149-44 16-68 29-68 49 0 17 14 26 38 26 46 0 92-17 124-33l18 112c-25 12-77 32-149 32-51 0-93-13-123-38-32-26-48-64-48-109 0-82 50-118 132-147 52-19 70-32 70-53 0-20-17-31-48-31-38 0-101 19-142 43l-18-113c35-20 100-41 168-41 54 0 98 13 129 37 34 27 51 66 51 117zM771 749l19 111h-96v135l-129-21-18-114-46-8-17-103h62v-219c0-57 15-96 44-120 25-20 61-30 111-30 39 0 62 7 79 11v118c-9-2-30-7-44-7-29 0-42 16-42 50v197h77zM1087 724v139c-10 2-19 3-28 3-42 0-76-22-89-62l-10 56h-131v-471h150v306c19 23 46 31 82 31 8 0 16 0 26-2zM1124 389h150v471h-150v-471zM1746 638c0 80-15 141-45 179-27 35-64 52-111 52-43 0-81-18-117-56l-8 47h-132v-645l150 25v151c23-7 47-11 68-11 37 0 92 10 134 56 41 44 61 112 61 202zM1278 986c0 44-35 79-79 79s-79-35-79-79 35-80 79-80 79 36 79 80zM2176 629c0 75-16 134-48 176-33 42-82 64-144 64-128 0-207-94-207-246 0-84 21-148 63-188 37-37 91-55 161-55 64 0 123 15 160 40l-16 103c-37-20-80-31-128-31-29 0-49 6-63 19-16 13-25 35-28 66h248c1 7 2 41 2 52zM2304 1280v-1280c0-70-58-128-128-128h-2048c-70 0-128 58-128 128v1280c0 70 58 128 128 128h2048c70 0 128-58 128-128z" glyph-name="cc-stripe" horiz-adv-x="2304" unicode="&#xf1f5;"/><glyph d="M1975 546h-138s14 37 66 179c-1-1 14 37 22 61l12-55c31-153 38-185 38-185zM531 611l-58 295c-8 41-39 54-75 54h-268l-2-13c184-47 335-147 403-336zM710 960l-162-438-17 89c-35 93-120 179-216 218l135-510h175l261 641h-176zM849 318h166l104 642h-166zM1617 944c-33 13-85 27-149 27-164 0-279-87-280-212-1-92 82-143 145-174 65-31 86-52 86-80 0-43-52-62-99-62-67 0-103 8-156 33l-22 11-23-144c39-18 110-34 185-34 174-1 287 86 289 219 0 73-45 128-140 174-58 29-93 50-93 80 0 27 30 55 95 55 54 1 94-10 124-24l15-8zM2042 960h-128c-40 0-70-12-87-54l-246-588h174c28 79 35 96 35 96h212s5-22 20-96h154zM2304 1280v-1280c0-70-58-128-128-128h-2048c-70 0-128 58-128 128v1280c0 70 58 128 128 128h2048c70 0 128-58 128-128z" glyph-name="cc-visa" horiz-adv-x="2304" unicode="&#xf1f0;"/><glyph d="M896 1156c296 0 370-279 370-516s-74-516-370-516-370 279-370 516 74 516 370 516zM896 961c-152 0-159-217-159-321 0-34 1-78 7-124l197 362c20 35 9 61-12 79-10 3-21 4-33 4zM1043 794l-220-380c-31-46-9-73 25-87l9-3c2-1 4-1 6-2 10-3 21-3 33-3 152 0 159 217 159 321 0 41-2 98-12 154zM894 1536c251 0 465-87 641-262 84-84 148-181 192-290 44-108 65-222 65-344 0-123-21-238-65-346-43-107-107-201-191-283-88-86-186-152-297-198s-227-69-345-69-232 22-341 67c-108 46-205 112-291 197-85 86-150 183-195 291s-67 221-67 341c0 118 22 232 67 341 46 110 112 209 198 295 171 174 380 260 629 260zM898 1375c-205 0-377-72-517-215-70-72-125-151-163-241-37-89-57-182-57-279 0-96 20-188 57-278 38-89 93-168 163-238 70-69 149-123 238-160 89-36 182-55 279-55 96 0 188 19 278 56 91 37 172 92 245 162 140 137 210 307 210 513 0 99-19 193-55 282s-90 168-159 237c-144 144-316 216-519 216z" glyph-name="cc-zero" horiz-adv-x="1792" unicode="&#xf348;"/><glyph d="M1376 640l138-135c19-18 26-45 20-70-7-25-27-45-52-51l-188-48 53-186c7-25 0-52-19-70-18-19-45-26-70-19l-186 53-48-188c-6-25-26-45-51-52-6-1-13-2-19-2-19 0-38 8-51 22l-135 138-135-138c-18-19-45-26-70-20-26 7-45 27-51 52l-48 188-186-53c-25-7-52 0-70 19-19 18-26 45-19 70l53 186-188 48c-25 6-45 26-52 51-6 25 1 52 20 70l138 135-138 135c-19 18-26 45-20 70 7 25 27 45 52 51l188 48-53 186c-7 25 0 52 19 70 18 19 45 26 70 19l186-53 48 188c6 25 26 45 51 51 25 7 52 0 70-19l135-139 135 139c18 19 44 26 70 19 25-6 45-26 51-51l48-188 186 53c25 7 52 0 70-19 19-18 26-45 19-70l-53-186 188-48c25-6 45-26 52-51 6-25-1-52-20-70z" glyph-name="certificate" unicode="&#xf0a3;"/><glyph d="M439 265l-256-256c-7-6-15-9-23-9s-16 3-23 9c-12 13-12 33 0 46l256 256c13 12 33 12 46 0 12-13 12-33 0-46zM608 224v-320c0-18-14-32-32-32s-32 14-32 32v320c0 18 14 32 32 32s32-14 32-32zM384 448c0-18-14-32-32-32h-320c-18 0-32 14-32 32s14 32 32 32h320c18 0 32-14 32-32zM1648 320c0-77-30-149-85-203l-147-146c-54-54-126-83-203-83s-150 30-204 85l-334 335c-17 17-30 36-42 56l239 18 273-274c36-36 100-37 136-1l147 146c18 18 28 42 28 67 0 26-10 50-28 68l-274 275 18 239c20-12 39-25 56-42l336-336c54-55 84-127 84-204zM1031 1044l-239-18-273 274c-18 18-42 28-68 28s-50-10-68-27l-147-146c-18-18-28-42-28-67 0-26 10-50 28-68l274-274-18-240c-20 12-39 25-56 42l-336 336c-54 55-84 127-84 204s30 149 85 203l147 146c54 54 126 83 203 83s150-30 204-85l334-335c17-17 30-36 42-56zM1664 960c0-18-14-32-32-32h-320c-18 0-32 14-32 32s14 32 32 32h320c18 0 32-14 32-32zM1120 1504v-320c0-18-14-32-32-32s-32 14-32 32v320c0 18 14 32 32 32s32-14 32-32zM1527 1353l-256-256c-7-6-15-9-23-9s-16 3-23 9c-12 13-12 33 0 46l256 256c13 12 33 12 46 0 12-13 12-33 0-46z" glyph-name="chain-broken" horiz-adv-x="1664" unicode="&#xf127;"/><glyph d="M1550 970c0-25-10-50-28-68l-724-724-136-136c-18-18-43-28-68-28s-50 10-68 28l-136 136-362 362c-18 18-28 43-28 68s10 50 28 68l136 136c18 18 43 28 68 28s50-10 68-28l294-295 656 657c18 18 43 28 68 28s50-10 68-28l136-136c18-18 28-43 28-68z" glyph-name="check" horiz-adv-x="1550" unicode="&#xf00c;"/><glyph d="M1284 802c0 17-6 34-18 46l-91 90c-12 12-28 19-45 19s-33-7-45-19l-408-407-226 226c-12 12-28 19-45 19s-33-7-45-19l-91-90c-12-12-18-29-18-46s6-33 18-45l362-362c12-12 29-19 45-19 17 0 34 7 46 19l543 543c12 12 18 28 18 45zM1536 640c0-424-344-768-768-768s-768 344-768 768 344 768 768 768 768-344 768-768z" glyph-name="check-circle" unicode="&#xf058;"/><glyph d="M1171 723l-422-422c-25-25-65-25-90 0l-294 294c-25 25-25 65 0 90l102 102c25 25 65 25 90 0l147-147 275 275c25 25 65 25 90 0l102-102c25-25 25-65 0-90zM1312 640c0 300-244 544-544 544s-544-244-544-544 244-544 544-544 544 244 544 544zM1536 640c0-424-344-768-768-768s-768 344-768 768 344 768 768 768 768-344 768-768z" glyph-name="check-circle-o" unicode="&#xf05d;"/><glyph d="M685 237l614 614c25 25 25 65 0 90l-102 102c-25 25-65 25-90 0l-467-467-211 211c-25 25-65 25-90 0l-102-102c-25-25-25-65 0-90l358-358c25-25 65-25 90 0zM1536 1120v-960c0-159-129-288-288-288h-960c-159 0-288 129-288 288v960c0 159 129 288 288 288h960c159 0 288-129 288-288z" glyph-name="check-square" unicode="&#xf14a;"/><glyph d="M1408 606v-318c0-159-129-288-288-288h-832c-159 0-288 129-288 288v832c0 159 129 288 288 288h832c40 0 80-8 117-25 9-4 16-13 18-23 2-11-1-21-9-29l-49-49c-6-6-15-10-23-10-3 0-6 1-9 2-15 4-30 6-45 6h-832c-88 0-160-72-160-160v-832c0-88 72-160 160-160h832c88 0 160 72 160 160v254c0 8 3 16 9 22l64 64c7 7 15 10 23 10 4 0 8-1 12-3 12-5 20-16 20-29zM1639 1095l-814-814c-32-32-82-32-114 0l-430 430c-32 32-32 82 0 114l110 110c32 32 82 32 114 0l263-263 647 647c32 32 82 32 114 0l110-110c32-32 32-82 0-114z" glyph-name="check-square-o" horiz-adv-x="1663" unicode="&#xf046;"/><glyph d="M813 237l454 454c25 25 25 65 0 90l-102 102c-25 25-65 25-90 0l-307-307-307 307c-25 25-65 25-90 0l-102-102c-25-25-25-65 0-90l454-454c25-25 65-25 90 0zM1536 640c0-424-344-768-768-768s-768 344-768 768 344 768 768 768 768-344 768-768z" glyph-name="chevron-circle-down" unicode="&#xf13a;"/><glyph d="M909 141l102 102c25 25 25 65 0 90l-307 307 307 307c25 25 25 65 0 90l-102 102c-25 25-65 25-90 0l-454-454c-25-25-25-65 0-90l454-454c25-25 65-25 90 0zM1536 640c0-424-344-768-768-768s-768 344-768 768 344 768 768 768 768-344 768-768z" glyph-name="chevron-circle-left" unicode="&#xf137;"/></font>
</defs>
</svg>
